<?xml version="1.0" standalone="no"?>
<!DOCTYPE svg PUBLIC "-//W3C//DTD SVG 1.1//EN" "http://www.w3.org/Graphics/SVG/1.1/DTD/svg11.dtd" >
<svg xmlns="http://www.w3.org/2000/svg">
<metadata>Generated by IcoMoon</metadata>
<defs>
<font id="icomoon" horiz-adv-x="1024">
<font-face units-per-em="1024" ascent="960" descent="-64" />
<missing-glyph horiz-adv-x="1024" />
<glyph unicode="&#x20;" horiz-adv-x="512" d="" />
<glyph unicode="&#xe900;" d="M170.667 832c-47.128 0-85.333-38.205-85.333-85.333v-597.333c0-47.127 38.205-85.333 85.333-85.333h682.667c47.127 0 85.333 38.206 85.333 85.333v457.698c0 47.127-38.206 85.333-85.333 85.333l-163.556-0.002v54.304c0 47.128-38.204 85.333-85.333 85.333h-433.777z" />
<glyph unicode="&#xe901;" d="M156.448 727.279c0 19.279 15.629 34.909 34.909 34.909h392.404c19.279 0 34.91-15.63 34.91-34.909 0-19.281-15.631-34.91-34.91-34.91h-392.404c-19.28 0-34.909 15.629-34.909 34.91z" />
<glyph unicode="&#xe902;" d="M938.667 465.459v-192h-222.223c-54.001 0-97.777 42.98-97.777 96 0 53.018 43.776 96 97.777 96h222.223zM716.444 413.094c-24.546 0-44.444-19.537-44.444-43.635 0-24.1 19.898-43.637 44.444-43.637h222.223v87.273h-222.223z" />
<glyph unicode="&#xe903;" d="M716.378 390.396h222.293v-87.253h-222.293c-11.571 0-22.669 4.597-30.85 12.779s-12.777 19.277-12.777 30.848c0 11.571 4.595 22.667 12.777 30.848s19.279 12.779 30.85 12.779z" />
<glyph unicode="&#xe904;" d="M938.667 574.718v-131.84h-222.293c-25.461 0-49.879-10.114-67.883-28.117s-28.117-42.421-28.117-67.883c0-25.459 10.114-49.877 28.117-67.881s42.421-28.119 67.883-28.119h222.293v-133.76c0-22.63-8.99-44.335-24.994-60.339-16.002-16.002-37.707-24.994-60.339-24.994h-682.667c-22.632 0-44.337 8.992-60.34 24.994-16.003 16.004-24.993 37.709-24.993 60.339v457.6c0 22.633 8.991 44.337 24.993 60.341 16.003 16.002 37.708 24.992 60.34 24.992h682.667c22.633 0 44.337-8.99 60.339-24.992 16.004-16.004 24.994-37.709 24.994-60.341z" />
<glyph unicode="&#xe905;" d="M412.361 736.004c-6.022-4.578-10.443-10.944-12.627-18.187s-2.020-14.991 0.467-22.133l1.28-3.2h-159.147c-3.089-0.015-6.106 0.941-8.621 2.735-2.515 1.796-4.403 4.335-5.393 7.262-0.992 2.927-1.037 6.091-0.13 9.043 0.907 2.955 2.72 5.547 5.184 7.413l200.533 152.746c1.596 1.252 3.433 2.161 5.397 2.67 1.963 0.508 4.011 0.605 6.014 0.285s3.919-1.052 5.626-2.147c1.709-1.096 3.17-2.533 4.297-4.221l45.013-65.493-87.893-66.772z" />
<glyph unicode="&#xe906;" d="M761.161 692.478h-305.493c-3.089-0.015-6.106 0.943-8.621 2.737s-4.403 4.335-5.393 7.26c-0.992 2.927-1.037 6.091-0.13 9.045s2.72 5.547 5.184 7.411l86.613 66.133 113.707 86.613c2.479 1.982 5.572 3.038 8.747 2.987 2.4 0.041 4.774-0.524 6.899-1.643s3.934-2.755 5.261-4.757l105.173-152.747c1.506-2.197 2.387-4.762 2.549-7.42 0.164-2.66-0.399-5.312-1.623-7.678-1.227-2.364-3.072-4.352-5.34-5.751-2.266-1.397-4.87-2.155-7.533-2.191z" />
<glyph unicode="&#xe907;" d="M512 960c282.77 0 512-229.23 512-512s-229.23-512-512-512c-282.77 0-512 229.23-512 512s229.23 512 512 512z" />
<glyph unicode="&#xe908;" d="M146.286 448c0 201.979 163.736 365.714 365.714 365.714s365.714-163.736 365.714-365.714c0-201.979-163.736-365.714-365.714-365.714s-365.714 163.736-365.714 365.714z" />
<glyph unicode="&#xe909;" d="M512 722.286lNaNNaNclNaNNaNclNaNNaNclNaNNaNclNaNNaNclNaNNaNclNaNNaNclNaNNaNclNaNNaNclNaNNaNcNaNNaNNaNNaNNaNNaNlNaNNaNclNaNNaNclNaNNaNclNaNNaNclNaNNaNclNaNNaNclNaNNaNclNaNNaNclNaNNaNclNaNNaNcNaNNaNNaNNaNNaNNaNlNaNNaNclNaNNaNclNaNNaNclNaNNaNclNaNNaNclNaNNaNclNaNNaNclNaNNaNclNaNNaNclNaNNaNcNaNNaNNaNNaNNaNNaNlNaNNaNclNaNNaNclNaNNaNclNaNNaNclNaNNaNclNaNNaNclNaNNaNclNaNNaNclNaNNaNclNaNNaNcNaNNaNNaNNaNNaNNaNz" />
<glyph unicode="&#xe90a;" d="M512 699.429c-138.873 0-251.429-112.556-251.429-251.429s112.556-251.429 251.429-251.429c138.873 0 251.429 112.556 251.429 251.429s-112.556 251.429-251.429 251.429zM214.857 448c0 164.122 133.021 297.143 297.143 297.143s297.143-133.021 297.143-297.143c0-164.122-133.021-297.143-297.143-297.143s-297.143 133.021-297.143 297.143z" />
<glyph unicode="&#xe90b;" d="M512 608c12.624 0 22.857-10.233 22.857-22.857v-152.38c0-12.624-10.233-22.857-22.857-22.857s-22.857 10.233-22.857 22.857v152.38c0 12.624 10.233 22.857 22.857 22.857z" />
<glyph unicode="&#xe90c;" d="M511.963 326.098c-4.206 0-7.618-3.414-7.589-7.62 0-4.206 3.414-7.618 7.62-7.618s7.62 3.412 7.62 7.618c0 4.206-3.414 7.62-7.651 7.62z" />
<glyph unicode="&#xe90d;" d="M481.518 318.396c-0.077 16.953 13.676 30.559 30.446 30.559 16.801 0 30.508-13.588 30.508-30.477 0-16.828-13.648-30.475-30.477-30.475-16.803 0-30.431 13.601-30.477 30.393z" />
<glyph unicode="&#xe90e;" d="M512 960c282.77 0 512-229.23 512-512s-229.23-512-512-512c-282.77 0-512 229.23-512 512s229.23 512 512 512z" />
<glyph unicode="&#xe90f;" d="M146.286 448c0 201.979 163.736 365.714 365.714 365.714s365.714-163.736 365.714-365.714c0-201.979-163.736-365.714-365.714-365.714s-365.714 163.736-365.714 365.714z" />
<glyph unicode="&#xe910;" d="M512 722.286lNaNNaNclNaNNaNclNaNNaNclNaNNaNclNaNNaNclNaNNaNclNaNNaNclNaNNaNclNaNNaNclNaNNaNcNaNNaNNaNNaNNaNNaNlNaNNaNclNaNNaNclNaNNaNclNaNNaNclNaNNaNclNaNNaNclNaNNaNclNaNNaNclNaNNaNclNaNNaNcNaNNaNNaNNaNNaNNaNlNaNNaNclNaNNaNclNaNNaNclNaNNaNclNaNNaNclNaNNaNclNaNNaNclNaNNaNclNaNNaNclNaNNaNcNaNNaNNaNNaNNaNNaNlNaNNaNclNaNNaNclNaNNaNclNaNNaNclNaNNaNclNaNNaNclNaNNaNclNaNNaNclNaNNaNclNaNNaNcNaNNaNNaNNaNNaNNaNz" />
<glyph unicode="&#xe911;" d="M511.963 326.098c-4.206 0-7.618-3.414-7.589-7.62 0-4.206 3.414-7.618 7.62-7.618s7.62 3.412 7.62 7.618c0 4.206-3.414 7.62-7.651 7.62z" />
<glyph unicode="&#xe912;" d="M512 699.429c-138.873 0-251.429-112.556-251.429-251.429s112.556-251.429 251.429-251.429c138.873 0 251.429 112.556 251.429 251.429s-112.556 251.429-251.429 251.429zM214.857 448c0 164.122 133.021 297.143 297.143 297.143s297.143-133.021 297.143-297.143c0-164.122-133.021-297.143-297.143-297.143s-297.143 133.021-297.143 297.143z" />
<glyph unicode="&#xe913;" d="M481.518 577.441c-0.077 16.953 13.676 30.559 30.446 30.559 16.801 0 30.508-13.588 30.508-30.477 0-16.828-13.648-30.475-30.477-30.475-16.803 0-30.431 13.601-30.477 30.393z" />
<glyph unicode="&#xe914;" d="M511.991 492.187c12.624 0 22.857-10.233 22.857-22.857v-152.38c0-12.624-10.233-22.857-22.857-22.857-12.623 0-22.857 10.233-22.857 22.857v152.38c0 12.624 10.235 22.857 22.857 22.857z" />
<glyph unicode="&#xe915;" d="M106.667 874.667c-47.128 0-85.333-38.205-85.333-85.333v-149.333c0-23.565 19.103-42.667 42.667-42.667h128v-554.667l77.538 32 71.795-32 83.281 32 77.54-32 77.538 32 81.641-32 51.281 32 55.386-32v704c0 70.692-57.308 128-128 128h-533.333z" />
<glyph unicode="&#xe916;" d="M21.333 789.333c0 47.128 38.205 85.333 85.333 85.333s85.333-38.205 85.333-85.333v-192h-128c-23.564 0-42.667 19.102-42.667 42.667v149.333z" />
<glyph unicode="&#xe917;" d="M981.333 448c0-117.82-95.514-213.333-213.333-213.333s-213.333 95.514-213.333 213.333c0 117.82 95.514 213.333 213.333 213.333s213.333-95.514 213.333-213.333z" />
<glyph unicode="&#xe918;" d="M1002.667 448c0-129.602-105.065-234.667-234.667-234.667s-234.667 105.065-234.667 234.667c0 129.602 105.065 234.667 234.667 234.667s234.667-105.065 234.667-234.667zM768 234.667c117.82 0 213.333 95.514 213.333 213.333s-95.514 213.333-213.333 213.333c-117.82 0-213.333-95.514-213.333-213.333s95.514-213.333 213.333-213.333z" />
<glyph unicode="&#xe919;" d="M767.987 576.002c-70.692 0-128-57.308-128-128s57.308-128 128-128c70.694 0 128 57.308 128 128s-57.306 128-128 128zM603.418 448.002c0 90.891 73.681 164.572 164.57 164.572 90.891 0 164.572-73.681 164.572-164.572s-73.681-164.572-164.572-164.572c-90.889 0-164.57 73.681-164.57 164.572z" />
<glyph unicode="&#xe91a;" d="M741.417 446.276c0 10.099 8.188 18.287 18.285 18.287h66.135c10.097 0 18.285-8.188 18.285-18.287s-8.188-18.285-18.285-18.285h-66.135c-10.097 0-18.285 8.186-18.285 18.285z" />
<glyph unicode="&#xe91b;" d="M759.701 544.26c10.099 0 18.287-8.186 18.287-18.285v-79.678c0-10.099-8.188-18.285-18.287-18.285-10.097 0-18.285 8.186-18.285 18.285v79.678c0 10.099 8.188 18.285 18.285 18.285z" />
<glyph unicode="&#xe91c;" d="M512 960c282.77 0 512-229.23 512-512s-229.23-512-512-512c-282.77 0-512 229.23-512 512s229.23 512 512 512z" />
<glyph unicode="&#xe91d;" d="M512 813.714c201.978 0 365.714-163.736 365.714-365.714s-163.736-365.714-365.714-365.714c-201.978 0-365.714 163.736-365.714 365.714s163.736 365.714 365.714 365.714z" />
<glyph unicode="&#xe91e;" d="M692.981 573.627c8.788-9.062 8.565-23.534-0.497-32.322l-226.286-219.429c-8.867-8.596-22.958-8.596-31.824 0l-102.857 99.741c-9.062 8.788-9.285 23.258-0.497 32.32s23.259 9.285 32.322 0.497l86.945-84.31 210.373 203.999c9.062 8.788 23.534 8.565 32.322-0.497z" />
<glyph unicode="&#xe91f;" glyph-name="transfer-Illus" d="M512 884.706c241.186 0 436.706-195.52 436.706-436.706s-195.52-436.706-436.706-436.706c-241.186 0-436.706 195.52-436.706 436.706s195.52 436.706 436.706 436.706z" />
<glyph unicode="&#xe920;" d="M106.667 874.667c-47.128 0-85.333-38.205-85.333-85.333v-149.333c0-23.565 19.103-42.667 42.667-42.667h128v-554.667l77.538 32 71.795-32 83.281 32 77.54-32 77.538 32 81.641-32 51.281 32 55.386-32v704c0 70.692-57.308 128-128 128h-533.333z" />
<glyph unicode="&#xe921;" d="M21.333 789.333c0 47.128 38.205 85.333 85.333 85.333s85.333-38.205 85.333-85.333v-192h-128c-23.564 0-42.667 19.102-42.667 42.667v149.333z" />
<glyph unicode="&#xe922;" d="M981.333 448c0-117.82-95.514-213.333-213.333-213.333s-213.333 95.514-213.333 213.333c0 117.82 95.514 213.333 213.333 213.333s213.333-95.514 213.333-213.333z" />
<glyph unicode="&#xe923;" d="M1002.667 448c0-129.602-105.065-234.667-234.667-234.667s-234.667 105.065-234.667 234.667c0 129.602 105.065 234.667 234.667 234.667s234.667-105.065 234.667-234.667zM768 234.667c117.82 0 213.333 95.514 213.333 213.333s-95.514 213.333-213.333 213.333c-117.82 0-213.333-95.514-213.333-213.333s95.514-213.333 213.333-213.333z" />
<glyph unicode="&#xe924;" d="M808.838 543.328c5.521 6.899 15.59 8.019 22.49 2.498l53.333-42.667c5.306-4.245 7.354-11.377 5.103-17.79-2.249-6.411-8.303-10.703-15.098-10.703h-213.333c-8.836 0-16 7.164-16 16s7.164 16 16 16h167.721l-17.715 14.172c-6.901 5.521-8.019 15.588-2.5 22.49z" />
<glyph unicode="&#xe925;" d="M646.236 410.63c2.251 6.411 8.303 10.703 15.098 10.703h213.333c8.838 0 16-7.164 16-16s-7.162-16-16-16h-167.721l17.717-14.172c6.899-5.521 8.019-15.59 2.498-22.49s-15.588-8.019-22.49-2.5l-53.333 42.667c-5.306 4.245-7.351 11.379-5.103 17.792z" />
<glyph unicode="&#xe926;" glyph-name="database-check" d="M512 832c188.587 0 341.333-76.373 341.333-170.667s-152.747-170.667-341.333-170.667c-188.587 0-341.333 76.373-341.333 170.667s152.747 170.667 341.333 170.667zM170.667 576c0-94.293 152.747-170.667 341.333-170.667s341.333 76.373 341.333 170.667v-131.413l-42.667 3.413c-110.507 0-204.8-69.973-240.64-168.107l-58.027-2.56c-188.587 0-341.333 76.373-341.333 170.667v128zM170.667 362.667c0-94.293 152.747-170.667 341.333-170.667h42.667c0-44.8 11.52-87.040 32-123.733l-74.667-4.267c-188.587 0-341.333 76.373-341.333 170.667v128zM768 60.587l-117.333 128 49.493 49.493 67.84-67.413 153.173 152.747 49.493-60.16-202.667-202.667z" />
<glyph unicode="&#xe927;" glyph-name="database-up" d="M810.667 405.333c-92.587 0-173.653-49.493-218.453-123.307-25.6-2.987-52.48-4.693-80.213-4.693-188.587 0-341.333 76.373-341.333 170.667v128c0-94.293 152.747-170.667 341.333-170.667s341.333 76.373 341.333 170.667v-128c0-15.36-4.267-30.293-11.947-44.8-9.387 2.133-20.48 2.133-30.72 2.133zM512 490.667c188.587 0 341.333 76.373 341.333 170.667s-152.747 170.667-341.333 170.667c-188.587 0-341.333-76.373-341.333-170.667s152.747-170.667 341.333-170.667zM558.933 193.707c-15.36-1.707-31.147-1.707-46.933-1.707-188.587 0-341.333 76.373-341.333 170.667v-128c0-94.293 152.747-170.667 341.333-170.667 19.627 0 38.4 0 56.747 2.56-8.96 26.027-14.080 53.76-14.080 82.773 0 15.36 1.707 29.867 4.267 44.373zM810.667 320l-128-128h85.333v-170.667h85.333v170.667h85.333l-128 128z" />
<glyph unicode="&#xe928;" glyph-name="earth-linear" d="M512 863.979c-230.4 0-416-185.6-416-416s183.893-413.867 412.16-416h7.68c228.693 2.133 412.16 186.88 412.16 416s-185.6 416-416 416zM804.693 644.246c-36.267-9.387-73.387-17.067-111.787-22.613-13.653 54.613-34.56 107.52-61.44 157.867 71.253-25.6 131.84-73.387 173.227-135.253zM642.56 345.152c-33.707 3.413-67.84 5.547-101.973 5.973-52.907 1.28-106.667-0.853-159.147-5.973-10.667 67.84-10.667 137.813 0 205.654 33.707-3.413 67.84-5.547 101.973-5.973 52.907-1.28 106.667 0.853 159.147 5.973 11.093-67.84 11.093-137.814 0-205.654zM432.213 715.926c8.96 18.347 18.347 36.693 29.013 54.187 23.893 39.68 77.653 39.68 101.547 0 29.44-49.067 51.627-101.547 66.133-156.16-54.187-5.12-109.653-6.827-164.693-4.693-23.040 0.853-46.080 2.56-69.12 4.693 9.387 34.56 21.76 69.12 37.12 101.973zM392.96 779.499c-27.307-50.347-48.213-103.253-61.867-157.867-38.4 5.547-75.52 13.227-111.787 22.613 41.813 61.867 101.973 109.653 173.653 135.253zM188.16 309.739c-18.347 42.24-28.16 89.173-28.16 138.24s9.813 96 28.16 138.24c41.813-11.52 85.333-20.48 130.133-27.307-11.947-73.387-11.947-148.48 0-221.867-44.8-6.827-88.32-15.787-130.133-27.307zM219.307 251.712c36.267 9.387 73.387 17.067 111.787 22.613 13.653-54.613 34.56-107.52 61.867-157.867-71.68 25.6-131.84 73.387-173.653 135.253zM591.787 180.032c-8.96-18.347-18.347-36.693-29.013-54.613-11.52-18.773-29.867-28.587-48.213-29.44h-5.12c-18.347 0.853-36.693 10.667-48.213 29.44-29.44 49.493-51.627 101.973-66.133 156.587 54.613 5.12 110.080 6.827 164.693 4.693 23.467-0.853 46.507-2.56 69.12-4.693-9.387-34.987-21.76-69.12-37.12-101.973zM631.467 116.459c27.307 50.347 47.787 103.253 61.44 157.867 38.4-5.547 75.52-13.227 111.787-22.613-41.387-61.867-101.973-109.653-173.227-135.253zM706.133 337.045c11.52 73.387 11.52 148.48 0 221.867 44.373 6.827 87.893 15.787 129.707 27.307 18.347-42.24 28.16-89.174 28.16-138.24s-9.813-96-28.16-138.24c-41.813 11.52-85.333 20.48-129.707 27.307z" />
<glyph unicode="&#xe929;" glyph-name="earth-more" d="M511.991 800.167c-194.491 0-352.158-157.667-352.158-352.158 0-194.496 157.667-352.162 352.158-352.162 17.677 0 32-14.327 32-32s-14.323-32-32-32c-229.837 0-416.158 186.321-416.158 416.162 0 229.837 186.321 416.158 416.158 416.158 229.841 0 416.162-186.321 416.162-416.158 0-17.677-14.327-32-32-32s-32 14.323-32 32c0 194.491-157.666 352.158-352.162 352.158zM117.731 576.060c0 17.673 14.327 32 32 32h724.531c17.673 0 32-14.327 32-32s-14.327-32-32-32h-724.531c-17.673 0-32 14.327-32 32zM117.773 319.953c0 17.673 14.327 32 32 32h362.218c17.677 0 32-14.327 32-32s-14.323-32-32-32h-362.218c-17.673 0-32 14.327-32 32zM406.152 803.040c21.833 37.815 62.166 61.126 105.84 61.126 43.661 0 84.023-23.296 105.865-61.088 63.74-107.478 97.212-230.199 96.879-355.159-0.047-17.673-14.413-31.962-32.085-31.91-17.677 0.047-31.962 14.413-31.915 32.085 0.303 113.472-30.11 224.912-88.021 322.496l-0.218 0.369c-10.394 18.062-29.662 29.207-50.505 29.207-20.838 0-40.068-11.144-50.462-29.206l-0.171-0.3c-117.44-199.089-117.442-446.263 0-645.354l0.128-0.222c10.47-18.074 29.751-29.222 50.637-29.282 17.673-0.047 31.962-14.417 31.91-32.090-0.047-17.673-14.413-31.957-32.085-31.91-43.614 0.119-83.883 23.381-105.777 61.090-129.186 219.089-129.193 491.054-0.020 710.147zM768.098 330.637c76.625 0 138.739-62.114 138.739-138.735 0-76.625-62.114-138.739-138.739-138.739-76.621 0-138.735 62.114-138.735 138.739 0 76.621 62.114 138.735 138.735 138.735zM768.098 394.637c-111.966 0-202.735-90.769-202.735-202.735 0-111.97 90.769-202.739 202.735-202.739 111.97 0 202.739 90.769 202.739 202.739 0 111.966-90.769 202.735-202.739 202.735zM753.745 191.902c0-17.673-14.327-32-32-32-17.677 0-32 14.327-32 32s14.323 32 32 32c17.673 0 32-14.327 32-32zM846.46 191.902c0-17.673-14.327-32-32-32s-32 14.327-32 32c0 17.673 14.327 32 32 32s32-14.327 32-32z" />
<glyph unicode="&#xe92a;" d="M322.89 832c-66.56 0-120.64-54.080-120.64-120.64v-597.44c0-37.44 40.96-60.8 72.96-41.6l182.399 108.8c30.080 17.92 67.2 18.24 97.6 0.96l194.56-111.68c32.32-18.56 72.32 4.8 72.32 41.92v599.040c0 66.56-54.080 120.64-120.64 120.64h-378.559zM702.409 485.44l-42.88-41.92 10.24-58.88c3.52-21.12-2.24-42.24-16-58.56s-33.92-25.92-55.36-25.92c-11.52 0-23.040 2.88-33.6 8.32l-52.8 27.84-52.8-27.84c-10.24-5.44-22.080-8.32-33.599-8.32-21.44 0-41.28 9.28-55.36 25.92-13.76 16.32-19.52 37.44-16 58.56l10.24 58.88-42.88 41.6c-19.84 19.2-26.88 47.68-18.24 73.92s30.72 45.12 58.24 48.96l59.2 8.64 26.559 53.76c12.16 24.96 37.12 40.32 64.64 40.32s52.48-15.36 64.64-40.32l26.56-53.76 59.2-8.64c27.52-3.84 49.6-22.72 58.24-48.96s1.6-54.72-18.24-73.92v0.32z" />
<glyph unicode="&#xe92b;" d="M533.769 649.6l32-64.96c3.52-7.040 10.24-12.16 18.24-13.12l71.68-10.56c19.84-2.88 27.84-27.2 13.44-41.28l-51.84-50.56c-5.76-5.44-8.32-13.44-7.040-21.44l12.16-71.36c3.52-19.84-17.28-34.88-35.2-25.6l-64 33.6c-7.040 3.84-15.36 3.84-22.4 0l-64-33.6c-17.599-9.28-38.399 5.76-35.199 25.6l12.16 71.36c1.28 7.68-1.28 15.68-7.040 21.44l-51.84 50.56c-14.4 14.080-6.4 38.4 13.44 41.28l71.679 10.56c8 1.28 14.72 6.080 18.24 13.12l32 64.96c8.96 17.92 34.56 17.92 43.2 0h0.32z" />
<glyph unicode="&#xe92c;" glyph-name="emoji" d="M394.667 576c0 17.673-14.327 32-32 32s-32-14.327-32-32v-42.667c0-17.673 14.327-32 32-32s32 14.327 32 32v42.667zM661.333 608c17.673 0 32-14.327 32-32v-42.667c0-17.673-14.327-32-32-32s-32 14.327-32 32v42.667c0 17.673 14.327 32 32 32zM385.186 356.070l0.14-0.137c0.216-0.205 0.634-0.593 1.251-1.143 1.234-1.105 3.252-2.837 6.016-5.001 5.542-4.339 13.993-10.321 25.053-16.35 22.129-12.070 54.218-24.085 94.355-24.085 40.115 0 72.201 12.015 94.34 24.085 11.063 6.033 19.52 12.015 25.067 16.354 2.769 2.163 4.787 3.9 6.025 5.001 0.201 0.183 0.384 0.35 0.546 0.495 0.324 0.299 0.559 0.516 0.704 0.653l0.162 0.154c12.51 12.365 32.678 12.314 45.124-0.145 12.493-12.501 12.484-32.764-0.017-45.252l-22.618 22.635c22.618-22.635 22.63-22.626 22.618-22.635l-0.038-0.043-0.149-0.149-0.277-0.269-0.806-0.772c-0.649-0.614-1.523-1.425-2.62-2.406-2.193-1.958-5.278-4.595-9.225-7.68-7.872-6.157-19.255-14.17-33.86-22.131-29.197-15.919-71.778-31.893-124.975-31.893-53.218 0-95.797 15.974-124.995 31.893-14.604 7.966-25.983 15.979-33.854 22.135-3.942 3.085-7.027 5.726-9.219 7.684-1.097 0.977-1.972 1.792-2.622 2.406l-0.806 0.772-0.275 0.269-0.106 0.107-0.045 0.043c-0.010 0.013-0.040 0.043 22.588 22.669l-22.627-22.626c-12.497 12.497-12.497 32.755 0 45.252 12.454 12.454 32.64 12.476 45.146 0.111zM512 864c229.769 0 416-186.231 416-416s-186.231-416-416-416c-229.769 0-416 186.231-416 416s186.231 416 416 416zM512 800c-194.423 0-352-157.577-352-352s157.577-352 352-352c194.423 0 352 157.577 352 352s-157.577 352-352 352z" />
<glyph unicode="&#xe92d;" d="M436.489 758.393c-186.239-21.12-327.999-189.44-306.239-385.602 17.6-159.040 145.92-287.68 304.959-305.92 194.56-22.080 361.6 116.48 385.6 300.16 2.88 21.44-14.4 40.32-35.84 40.32-64 0-191.36 0-260.8 0-26.56 0-48 21.44-48 48.32v266.562c0 21.44-18.56 38.4-39.68 36.16z" />
<glyph unicode="&#xe92e;" d="M769.289 625.593h-62.4c-6.72 0-12.16 5.44-12.16 12.16v64.32c0 12.48-5.12 24.64-13.76 33.92l-86.4 88c-16.32 16.64-44.16 5.12-44.16-18.24v-279.362c0-24.96 20.16-45.44 45.44-45.44h274.24c23.040 0 34.56 27.52 18.56 43.84l-84.8 86.082c-8.96 9.28-21.44 14.4-34.24 14.4l-0.32 0.32z" />
<glyph unicode="&#xe92f;" glyph-name="exchange" d="M332.873 854.627c12.497 12.497 32.758 12.497 45.255 0l71.127-71.125c5.803-5.793 9.412-13.819 9.412-22.669 0-9.538-4.173-18.101-10.79-23.964l-69.756-69.712c-12.5-12.493-32.762-12.487-45.255 0.014s-12.487 32.762 0.014 45.255l16.417 16.407h-36.422c-60.876 0-110.208-49.332-110.208-110.208 0-17.673-14.327-32-32-32s-32 14.327-32 32c0 96.222 77.986 174.208 174.208 174.208h36.537l-16.539 16.539c-12.497 12.497-12.497 32.758 0 45.255zM853.333 309.333c17.673 0 32-14.327 32-32 0-96.222-77.986-174.208-174.208-174.208h-36.578l16.538-16.538c12.497-12.497 12.497-32.759 0-45.257s-32.755-12.497-45.252 0l-71.125 71.125c-6.003 6.003-9.374 14.144-9.374 22.63 0 9.335 3.994 17.771 10.368 23.62l70.135 70.093c12.501 12.493 32.764 12.489 45.257-0.013s12.489-32.764-0.013-45.257l-16.418-16.405h36.463c60.877 0 110.208 49.331 110.208 110.208 0 17.673 14.327 32 32 32zM202.667 357.291c0 20.642 16.734 37.376 37.376 37.376h74.624c20.586 0 37.333-16.721 37.333-37.376v-5.248c0-17.673 14.327-32 32-32s32 14.327 32 32v5.248c0 55.974-45.376 101.376-101.333 101.376h-5.333v10.667c0 17.673-14.327 32-32 32s-32-14.327-32-32v-10.667h-5.291c-55.988 0-101.376-45.389-101.376-101.376 0-47.061 32.411-87.983 78.32-98.662l106.169-24.866c16.879-3.951 28.844-19.029 28.844-36.386 0-20.655-16.747-37.376-37.333-37.376h-74.624c-20.642 0-37.376 16.734-37.376 37.376v5.248c0 17.673-14.327 32-32 32s-32-14.327-32-32v-5.248c0-55.987 45.388-101.376 101.376-101.376h5.291v-10.667c0-17.673 14.327-32 32-32s32 14.327 32 32v10.667h5.333c55.958 0 101.333 45.402 101.333 101.376 0 47.066-32.411 87.97-78.249 98.697l-106.253 24.887c-16.881 3.925-28.831 18.978-28.831 36.331zM757.333 437.303h22.485c58.291 0 105.515 47.223 105.515 105.515 0 33.405-15.509 63.174-39.718 82.505 14.601 18.354 23.334 41.564 23.334 66.858 0 59.529-48.29 107.819-107.819 107.819h-3.797v10.667c0 17.673-14.327 32-32 32s-32-14.327-32-32v-10.667h-53.333c-17.673 0-32-14.327-32-32v-298.355c0-10.492 4.924-18.308 9.481-22.861 4.553-4.557 12.369-9.481 22.861-9.481h52.992v-10.637c0-17.673 14.327-32 32-32s32 14.327 32 32v10.637zM672 584.333v-83.030h51.951c0.457 0.021 0.917 0.030 1.382 0.030s0.926-0.009 1.382-0.030h53.103c22.946 0 41.515 18.569 41.515 41.515s-18.569 41.515-41.515 41.515h-107.819zM672 736h89.131c24.183 0 43.819-19.636 43.819-43.819 0-23.996-19.661-43.819-44.288-43.819-0.465 0-0.926-0.010-1.382-0.029h-87.279v87.667z" />
<glyph unicode="&#xe930;" glyph-name="gamepad" d="M704 576l-128-128 128-128h234.667v256h-234.667zM384 256v-234.667h256v234.667l-128 128-128-128zM320 576h-234.667v-256h234.667l128 128-128 128zM640 640v234.667h-256v-234.667l128-128 128 128z" />
<glyph unicode="&#xe931;" glyph-name="gift-box" d="M526.374 830.062c46.643 45.945 120.725 45.242 166.417-2.292 45.013-46.838 45.645-121.771 2.125-169.542-0.661-0.845-1.365-1.668-2.125-2.458-1.698-1.767-3.541-3.402-5.291-5.083h165.833c41.225 0 74.667-33.442 74.667-74.667v-85.332c-0.013-41.216-33.446-74.667-74.667-74.667h-10.667v-309.333c-0.013-41.216-33.446-74.667-74.667-74.667h-512c-41.219 0-74.656 33.451-74.667 74.667v309.333h-10.667c-41.219 0-74.656 33.451-74.667 74.667v85.332c0 41.225 33.442 74.667 74.667 74.667h165.833l-5.292 5.083-2.125 2.458c-43.529 47.77-42.89 122.701 2.125 169.542 45.641 47.479 119.556 48.206 166.208 2.417 0.077-0.064 0.175-0.102 0.252-0.167l2.415-2.25 6.417-7.292c1.933-2.39 3.767-4.868 5.5-7.375 3.546 5.133 7.501 10.071 11.917 14.667 0.785 0.817 1.609 1.577 2.458 2.292zM544 416.021v-320h224c5.871 0 10.654 4.796 10.667 10.667v309.333h-234.667zM245.333 106.688c0.011-5.871 4.794-10.667 10.667-10.667h224v320h-234.667v-309.333zM170.667 586.687c-5.879 0-10.667-4.788-10.667-10.667v-85.332c0.011-5.871 4.794-10.667 10.667-10.667h309.333v106.665h-309.333zM544 480.021h309.333c5.871 0 10.654 4.796 10.667 10.667v85.332c0 5.879-4.787 10.667-10.667 10.667h-309.333v-106.665zM646.626 783.395c-21.282 22.14-55.215 22.13-76.501 0-0.132-0.137-0.324-0.241-0.457-0.375-7.642-8.145-13.952-20.75-18.419-37.583-4.471-16.883-6.519-35.944-7.083-54.458-0.418-13.882 0.090-26.982 0.794-37.917 32.29 4.851 73.685 18.078 101.457 46.833 0.064 0.067 0.145 0.142 0.209 0.208 21.952 22.854 21.956 60.439 0 83.292zM453.875 783.395c-21.286 22.134-55.259 22.141-76.542 0-20.568-21.427-21.841-55.797-3.833-78.833l3.625-4.208 0.25-0.25 7.25-6.917c27.389-24.12 64.732-35.575 94.377-40.041 0.695 10.918 1.25 23.985 0.832 37.833-0.563 18.515-2.611 37.575-7.083 54.458-3.972 14.973-9.429 26.596-15.957 34.708l-2.5 2.875c-0.128 0.129-0.29 0.244-0.418 0.375z" />
<glyph unicode="&#xe932;" glyph-name="hammer-law" d="M437.21 223.889c47.398 0.043 89.83-28.343 108.122-71.415l3.337-8.836 15.834-47.748h15.206l3.251-0.166c16.132-1.638 28.74-15.27 28.749-31.834 0-16.572-12.612-30.195-28.749-31.834l-3.251-0.166h-451.875c-17.673 0-32 14.327-32 32 0.009 17.664 14.333 32 32 32h15.375l15.958 47.791c15.945 47.825 60.668 80.132 111.083 80.252l166.96-0.043zM266.125 159.765c-21.151-1.741-39.455-15.945-46.25-36.335l-9.208-27.541h286.417l-9.169 27.584c-7.296 21.764-27.699 36.484-50.667 36.459l-171.123-0.166zM570.458 863.972c31.087 1.644 61.419-10.017 83.375-32.083l71.415-71.833c22.063-22.219 33.66-52.824 31.876-84.084-1.792-31.254-16.802-60.277-41.25-79.833l-52.083-41.542 223.211-188.876c33.139-28.16 47.91-72.422 38.289-114.833-9.63-42.415-42.069-75.989-84.126-87.083-42.052-11.085-86.788 2.142-116.083 34.291l-0.038 0.043-198.374 218.415-36.169-45.001c-19.503-24.256-48.418-39.057-79.5-40.708-27.199-1.438-53.814 7.3-74.75 24.294l-8.625 7.791-71.542 71.915c-22.060 22.221-33.664 52.783-31.875 84.045 1.797 31.252 16.842 60.319 41.292 79.873l93.917 74.917c20.524 16.375 39.207 34.96 55.667 55.417l75.916 94.208c19.503 24.229 48.397 39.019 79.458 40.666zM613.043 513.724c-16.597-14.174-31.902-29.798-45.666-46.75l204.996-225.792c13.239-14.524 33.502-20.471 52.501-15.458 18.995 5.018 33.651 20.173 37.999 39.33 4.339 19.14-2.313 39.108-17.25 51.836l-232.58 196.834zM305.417 548.722l-0.041 0.042c-10.247-8.209-16.495-20.431-17.25-33.542-0.75-13.107 4.096-25.92 13.333-35.251l71.542-71.872c9.115-9.165 21.719-14.016 34.625-13.333 12.898 0.687 24.904 6.81 32.998 16.875l0.043 0.043 13.751 17.122-132.834 132.834-16.167-12.916zM464.917 689.014c-19.409-24.124-41.421-46.067-65.626-65.375l-27.375-21.833 122.876-122.876 21.666 26.918c19.396 24.107 41.374 46.050 65.54 65.374l27.375 21.875-122.79 122.792-21.666-26.875zM573.833 800.055c-12.894-0.689-24.905-6.815-32.998-16.875l-13.875-17.167 132.791-132.791 16.209 12.916c10.236 8.212 16.499 20.397 17.25 33.5 0.747 13.123-4.113 25.964-13.376 35.292l-71.377 71.833c-9.109 9.153-21.726 13.972-34.624 13.292z" />
<glyph unicode="&#xe933;" glyph-name="hand-star" d="M303.175 617.168c10.24-19.2 30.293-30.72 51.627-30.72 21.76 0 41.387 11.947 51.627 30.72l18.773 35.84 37.975 20.907c19.2 10.24 30.72 30.293 30.72 51.627s-11.947 41.387-30.72 51.627l-35.84 18.773-20.908 37.973c-10.667 18.773-30.293 30.293-51.627 30.293s-41.387-11.52-51.627-30.293l-18.773-35.84-37.973-20.907c-19.2-10.24-30.72-29.867-30.72-51.627s11.947-41.387 30.72-51.627l35.84-18.773 20.907-37.973zM315.548 708.902l-29.44 16.213v0.427l29.44 15.787c9.813 5.547 18.347 13.653 23.467 23.467l16.213 29.44 16.213-29.44c5.547-9.813 13.653-17.92 23.467-23.467l29.44-16.213-29.44-16.213c-9.813-5.547-17.92-13.653-23.467-23.467l-16.213-29.44-16.213 29.44c-5.547 9.813-13.653 18.347-23.467 23.467zM738.79 458.449c-25.6 0-48.64 13.653-61.013 36.267l-29.013 52.906-55.040 31.147c-22.187 12.373-36.267 35.413-36.267 61.013s13.653 48.64 36.267 61.013l52.907 29.013 31.147 55.467c12.373 22.187 35.413 36.267 61.013 36.267s48.64-13.653 61.013-36.267l29.013-52.907 55.040-31.147c22.187-11.947 36.267-35.413 36.267-61.013s-14.080-48.64-36.267-61.013l-52.907-29.013-31.147-55.039c-12.373-22.187-35.413-36.267-61.013-36.267v-0.427zM738.79 757.115c0 0-3.84-1.28-4.693-2.56l-29.013-52.907c-6.4-11.52-15.787-21.333-27.733-27.733l-52.907-29.013c0 0-2.987-2.987-2.987-4.693s1.28-3.84 2.987-4.693l52.907-29.013c11.52-6.4 21.333-15.787 27.733-27.733l29.013-52.906c2.133-3.413 7.68-3.413 9.813 0l29.013 52.906c6.4 11.52 15.787 21.333 27.733 27.733l52.907 29.013c0 0 2.987 2.987 2.987 4.693s-1.28 3.84-2.987 4.693l-52.907 29.013c-11.52 6.4-21.333 15.787-27.733 27.733l-29.013 52.907c0 0-2.987 2.987-4.693 2.987l-0.427-0.427zM248.125 31.791c29.54 0 55.307 17.532 67.379 42.671h39.714c3.253-0.388 6.631-0.7 10.062-1.020 7.817-0.717 15.937-1.468 23.645-3.247l113.065-28.16c15.787-3.84 32.427-5.973 49.067-5.973l-0.427 0.427c13.227 0 26.453 1.28 39.68 3.84l125.013 25.173c39.253 7.68 75.093 26.88 103.68 55.467l88.32 88.32c18.347 17.92 28.587 42.667 28.587 68.267s-10.24 50.347-28.16 68.267c-33.707 33.707-87.893 37.973-126.293 8.96l-75.089-56.162v13.056c0 44.373-29.867 83.2-72.96 93.867l-97.707 24.32c-61.867 15.787-130.986 4.267-185.173-32l-29.448-19.58c-7.341 33.472-37.418 58.842-72.955 58.842h-85.333c-40.96 0-74.667-33.707-74.667-74.667v-256c0-40.96 33.707-74.667 74.667-74.667h85.333zM514.795 234.406c0.026-17.476 14.524-31.957 32-31.957h63.147c3.11 0 6.187 0.149 9.225 0.439h27.038c25.173 0 50.347 8.107 70.4 23.467l103.253 77.227c12.8 9.813 31.147 8.533 42.667-2.987 5.973-5.973 9.387-14.507 9.387-23.040s-3.413-17.067-9.387-23.040l-88.32-88.32c-19.2-19.627-43.947-32.427-70.827-37.973l-125.013-25.173c-20.053-4.267-41.387-3.84-61.013 1.28l-113.065 28.16c-16.213 3.84-32.427 5.973-49.067 5.973h-32.427v164.083l63.15 41.984c39.68 26.027 89.173 34.56 134.4 23.040l97.707-24.32c14.507-3.413 24.747-16.64 24.747-31.573v-12.8c0-16.094-11.703-29.436-27.068-31.987h-68.937c-17.493 0-32-14.507-32-32l0.004-0.482zM258.792 315.26v-208.798c0-5.973-4.693-10.671-10.667-10.671h-85.333c-5.973 0-10.667 4.693-10.667 10.667v256c0 5.973 4.693 10.667 10.667 10.667h85.333c5.973 0 10.667-4.693 10.667-10.667v-38.583c-0.387-2.85-0.391-5.747 0-8.614z" />
<glyph unicode="&#xe934;" glyph-name="placeholder" d="M512 864c-229.751 0-416-186.249-416-416s186.249-416 416-416c229.751 0 416 186.249 416 416s-186.249 416-416 416zM160 448c0 194.404 157.596 352 352 352 194.402 0 352-157.596 352-352 0-194.402-157.598-352-352-352-194.404 0-352 157.598-352 352z" />
<glyph unicode="&#xe935;" glyph-name="lamp" d="M543.957 843.458c0 17.673-14.327 32-32 32s-32-14.327-32-32v-38.416c0-17.673 14.327-32 32-32s32 14.327 32 32v38.416zM806.208 708.31c12.497 12.497 12.497 32.758 0 45.255s-32.759 12.497-45.252 0l-27.166-27.164c-12.497-12.497-12.497-32.758 0-45.255s32.755-12.497 45.252 0l27.166 27.164zM371.034 266.931c-0.337 0.486-0.662 0.981-0.973 1.489-0.293 0.32-0.625 0.606-0.993 0.853l-0.616 0.422c-88.635 62.554-126.551 175.309-93.722 278.706 32.829 103.399 128.842 173.629 237.329 173.598 108.484-0.031 204.454-70.318 237.227-173.736 32.768-103.417-5.214-216.147-93.884-278.649l-0.64-0.439c-0.209-0.141-0.405-0.294-0.589-0.461-0.457-0.759-0.947-1.502-1.463-2.223-0.154-0.444-0.243-0.913-0.269-1.391v-99.567c0.004-32.461-12.89-63.599-35.844-86.549-22.959-22.959-54.093-35.844-86.549-35.844h-36.156c-32.457 0-63.59 12.885-86.548 35.844-22.954 22.95-35.848 54.084-35.844 86.545v99.452c-0.035 0.678-0.195 1.34-0.466 1.95zM512.038 658c-80.593 0.023-151.92-52.151-176.308-128.963-24.358-76.719 3.709-160.371 69.379-206.878 2.271-1.545 4.433-3.213 6.481-4.992h200.766c2.031 1.758 4.177 3.409 6.43 4.937 65.69 46.468 93.798 130.099 69.487 206.831-24.341 76.827-95.642 129.042-176.235 129.066zM588.442 165.525v87.642h-152.943v-87.637c0-15.484 6.148-30.34 17.101-41.293 10.948-10.948 25.801-17.097 41.293-17.097h36.156c15.492 0 30.345 6.148 41.293 17.097 10.953 10.953 17.101 25.805 17.101 41.289zM290.125 237.44c12.497-12.497 12.497-32.759 0-45.257l-27.165-27.162c-12.497-12.497-32.758-12.497-45.255 0s-12.497 32.755 0 45.252l27.165 27.166c12.497 12.497 32.758 12.497 45.255 0zM857.707 491.29c-17.673 0-32-14.323-32-32 0-17.673 14.327-32 32-32h38.417c17.673 0 32 14.327 32 32 0 17.677-14.327 32-32 32h-38.417zM95.792 459.29c0 17.677 14.327 32 32 32h38.416c17.673 0 32-14.323 32-32 0-17.673-14.327-32-32-32h-38.416c-17.673 0-32 14.327-32 32zM779.085 237.44c-12.497 12.497-32.755 12.497-45.252 0s-12.497-32.759 0-45.257l27.162-27.162c12.497-12.497 32.759-12.497 45.257 0s12.497 32.755 0 45.252l-27.166 27.166zM217.706 753.565c12.497 12.497 32.758 12.497 45.255 0l27.164-27.164c12.497-12.497 12.497-32.758 0-45.255s-32.758-12.497-45.255 0l-27.164 27.164c-12.497 12.497-12.497 32.758 0 45.255z" />
<glyph unicode="&#xe936;" glyph-name="language" d="M433.502 661.333c0 17.673-14.329 32-32.002 32s-32-14.327-32-32v-2.125h-70.833c-17.673 0-32-14.327-32-32s14.327-32 32-32h118.169c-4.857-19.849-14.138-37.712-26.609-52.486-2.388-1.98-4.419-4.242-6.080-6.701-22.18-22.742-52.523-36.6-85.48-36.6-17.673 0-32-14.323-32-32 0-17.673 14.327-32 32-32 41.579 0 79.691 13.948 110.442 37.402 25.827-22.835 58.351-37.41 94.912-37.41 17.677 0 32 14.327 32 32s-14.323 32-32 32c-18.014 0-35.767 6.942-51.324 20.275 14.673 22.339 24.879 47.986 29.376 75.52h21.82c17.673 0 32 14.327 32 32s-14.327 32-32 32h-70.391v2.125zM502.801 248.964l96.418 192.879c2.927 6.434 7.996 11.947 14.81 15.351 4.604 2.304 9.498 3.392 14.319 3.388 4.821 0.009 9.715-1.079 14.323-3.383 6.814-3.405 11.883-8.917 14.81-15.347l78.673-157.312c0.503-0.9 0.969-1.826 1.387-2.773l16.401-32.798c7.906-15.804 1.502-35.029-14.306-42.931-15.808-7.906-35.029-1.502-42.935 14.306l-8.265 16.533h-120.128l-8.26-16.529c-7.902-15.808-27.123-22.217-42.931-14.315s-22.217 27.123-14.315 42.931zM600.303 300.877h56.124l-28.070 56.124-28.053-56.124zM96 746.667c0 64.82 52.514 117.333 117.333 117.333h597.333c64.819 0 117.333-52.514 117.333-117.333v-597.333c0-64.819-52.514-117.333-117.333-117.333h-597.333c-64.82 0-117.333 52.514-117.333 117.333v597.333zM213.333 800c-29.474 0-53.333-23.86-53.333-53.333v-597.333c0-29.474 23.86-53.333 53.333-53.333h597.333c29.474 0 53.333 23.859 53.333 53.333v597.333c0 29.474-23.859 53.333-53.333 53.333h-597.333z" />
<glyph unicode="&#xe937;" d="M523.196 605.769l24 24c34.88 34.88 90.24 43.2 131.52 16 56.64-37.44 62.4-114.88 16.96-160.32l-25.92-25.92c-20.8-20.8-20.8-54.4 0-74.88 20.8-20.8 54.4-20.8 74.88 0l20.8 20.8c79.040 79.040 88.32 207.36 14.72 291.2-80.64 91.84-220.8 95.36-305.92 10.24l-25.92-25.92c-20.8-20.8-20.8-54.4 0-74.88 20.8-20.8 54.4-20.8 74.88 0v-0.32z" />
<glyph unicode="&#xe938;" d="M500.796 290.249l-24-24c-34.88-34.88-90.239-43.2-131.519-16-56.64 37.44-62.4 114.88-16.96 160.32l25.92 25.92c20.8 20.8 20.8 54.4 0 74.88-20.8 20.8-54.4 20.8-74.88 0l-20.8-20.8c-79.040-79.040-88.32-207.36-14.72-291.2 80.64-91.84 220.799-95.36 305.919-10.24l25.92 25.92c20.8 20.8 20.8 54.4 0 74.88-20.8 20.8-54.4 20.8-74.88 0v0.32z" />
<glyph unicode="&#xe939;" d="M558.528 569.744l-168.575-168.575c-20.745-20.745-20.795-54.327-0.113-75.008 20.682-20.685 54.265-20.634 75.010 0.111l168.576 168.576c20.745 20.745 20.796 54.327 0.111 75.009-20.681 20.682-54.263 20.632-75.008-0.113z" />
<glyph unicode="&#xe93a;" glyph-name="mailbox-poste" d="M298.667 480c17.493 0 32-14.507 32-32s-14.507-32-32-32h-42.667c-17.493 0-32 14.507-32 32s14.507 32 32 32h42.667zM810.667 906.667c17.493 0 32-14.507 32-32v-128c0-17.493-14.507-32-32-32h-181.333v-64h117.333c100.267 0 181.333-81.067 181.333-181.333v-234.667c0-41.387-33.28-74.667-74.667-74.667h-224v-138.667c0-17.493-14.507-32-32-32h-170.667c-17.493 0-32 14.507-32 32v138.667h-224c-41.387 0-74.667 33.28-74.667 74.667v234.667c0 100.267 81.067 181.333 181.333 181.333h288v224c0 17.493 14.507 32 32 32h213.333zM458.667 160v-106.667h106.667v106.667h-106.667zM277.333 586.667c-64.853 0-117.333-52.48-117.333-117.333v-234.667c0-5.973 4.693-10.667 10.667-10.667h224v245.333c0 64.853-52.48 117.333-117.333 117.333zM415.583 586.667c26.879-31.572 43.084-72.538 43.084-117.333v-245.333h394.667c5.973 0 10.667 4.693 10.667 10.667v234.667c0 64.853-52.48 117.333-117.333 117.333h-117.333v-102.835c9.813-8.96 15.791-21.751 15.791-35.831 0-26.453-21.338-47.791-47.791-47.791-26.453-0.427-47.791 21.338-47.791 47.791 0 14.080 5.978 26.871 15.791 35.831v102.835h-149.75zM629.333 842.667v-64h149.333v64h-149.333z" />
<glyph unicode="&#xe93b;" glyph-name="medal" d="M340.95 864c26.777-0.006 51.495-14.348 64.791-37.625l106.207-185.833 106.291 185.833c13.299 23.283 38.012 37.622 64.794 37.625h145.54c55.492 0 90.995-58.089 67.294-107l-2.458-4.708-149.5-261.583c80.303-108.834 74.304-261.372-18.086-363.627l-10.206-10.748c-108.958-108.949-283.533-112.354-396.585-10.21l-10.75 10.21c-102.077 102.080-111.513 261.777-28.291 374.498l-149.375 261.459c-28.432 49.775 7.45 111.698 64.792 111.708h145.542zM661.99 486.332c-85.094 76.888-214.985 76.891-300.082 0l-8.333-7.957c-3.162-3.162-6.192-6.409-9.125-9.707-0.836-1.143-1.797-2.176-2.792-3.209-75.331-88.004-71.375-220.54 11.917-303.834l8.333-7.957c87.93-79.45 223.67-76.783 308.415 7.957l7.962 8.333c75.806 83.895 76.834 211.29 3.166 296.418-0.666 0.747-1.374 1.446-1.958 2.249-0.41 0.461-0.794 0.956-1.207 1.417l-7.962 8.333-8.333 7.957zM683.034 800c-2.88-0.003-5.577-1.147-7.543-3.125l-1.707-2.25-109.419-191.458c48.124-8.859 94.383-30.019 133.794-63.5l139.665 244.375 1.126 2.708c1.638 6.463-3.221 13.25-10.377 13.25h-145.54zM195.409 800c-8.176-0.010-13.318-8.826-9.25-15.958l139.625-244.334c39.42 33.48 85.706 54.606 133.835 63.459l-109.418 191.458c-1.892 3.316-5.42 5.369-9.25 5.375h-145.542z" />
<glyph unicode="&#xe93c;" glyph-name="moon" d="M552.508 805.341c6.276-10.865 5.623-24.397-1.668-34.608-76.732-107.427-68.561-260.555 26.453-355.574 75.917-75.913 186.765-95.59 283.354-64.683 11.866 3.797 24.858 0.363 33.297-8.802 8.439-9.169 10.79-22.4 6.025-33.911-55.868-135.010-190.827-233.097-345.301-233.097-205.406 0-373.333 167.927-373.333 373.333 0 196.102 149.469 354.558 340.361 373.181 12.489 1.219 24.538-4.975 30.814-15.84zM462.963 744.218c-126.455-40.018-217.63-156.825-217.63-296.218 0-170.061 139.273-309.333 309.333-309.333 104.124 0 198.438 54.417 254.729 135.898-98.133-10.573-201.25 19.234-277.355 95.343-100.262 100.258-121.95 250.706-69.077 374.311z" />
<glyph unicode="&#xe93d;" glyph-name="other-fill" d="M512 832c-212.16 0-384-171.84-384-384s171.84-384 384-384c212.16 0 384 171.84 384 384s-171.84 384-384 384zM288 368c-44.16 0-80 35.84-80 80s35.84 80 80 80c44.16 0 80-35.84 80-80s-35.84-80-80-80zM512 368c-44.16 0-80 35.84-80 80s35.84 80 80 80c44.16 0 80-35.84 80-80s-35.84-80-80-80zM736 368c-44.16 0-80 35.84-80 80s35.84 80 80 80c44.16 0 80-35.84 80-80s-35.84-80-80-80z" />
<glyph unicode="&#xe93e;" d="M719.68 832h-415.36c-97.379 0-176.32-78.941-176.32-176.32v-415.36c0-97.378 78.941-176.32 176.32-176.32h415.36c97.378 0 176.32 78.942 176.32 176.32v415.36c0 97.379-78.942 176.32-176.32 176.32z" />
<glyph unicode="&#xe93f;" d="M338.24 293.44c-13.12-12.48-33.92-12.16-46.4 0.96-12.16 12.8-12.16 32.96 0 45.44l108.16 108.16-108.16 108.16c-12.48 13.12-12.16 33.92 0.96 46.4 12.8 12.16 32.96 12.16 45.44 0l131.2-131.2c12.8-12.8 12.8-33.6 0-46.4l-131.2-131.2v-0.32z" />
<glyph unicode="&#xe940;" d="M708.8 316.8h-196.8c-18.24 0-32.96 14.72-32.96 32.96s14.72 32.96 32.96 32.96h196.8c18.24 0 32.96-14.72 32.96-32.96s-14.72-32.96-32.96-32.96z" />
<glyph unicode="&#xe941;" glyph-name="recipe" d="M426.667 309.333c-17.673 0-32-14.327-32-32s14.327-32 32-32h170.667c17.673 0 32 14.327 32 32s-14.327 32-32 32h-170.667zM609.293 467.456c12.497 12.497 12.497 32.755 0 45.252-12.493 12.497-32.755 12.501-45.252 0.004l-63.548-63.543-19.23 19.179c-12.514 12.48-32.772 12.454-45.252-0.060-12.482-12.514-12.455-32.772 0.060-45.252l41.856-41.745c12.501-12.471 32.738-12.459 45.222 0.026l86.144 86.14zM210.999 863.92c0.754 0.053 1.51 0.080 2.267 0.080h597.332c0.759 0 1.515-0.027 2.27-0.080 67.558-4.798 118.707-62.881 115.063-130.382v-144.41c3.644-67.499-47.505-125.585-115.063-130.381-0.755-0.055-1.51-0.081-2.27-0.081h-53.265v-352c0-11.529-6.199-22.165-16.235-27.844-10.031-5.683-22.34-5.525-32.226 0.401l-54.66 32.789-54.618-32.785c-10.133-6.080-22.797-6.084-32.93-0.004l-54.665 32.794-54.665-32.794c-10.133-6.080-22.797-6.076-32.93 0.004l-54.619 32.785-54.659-32.789c-9.886-5.926-22.198-6.084-32.229-0.401-10.032 5.679-16.233 16.316-16.233 27.844v352h-53.4c-0.752 0-1.503 0.026-2.253 0.081-67.56 4.766-118.721 62.839-115.080 130.338v144.453c-3.642 67.5 47.506 125.583 115.066 130.381zM693.265 490.667c0 0.7 0.026 1.399 0.068 2.086v136.58h-362.667v-466.155l22.664 13.598c10.135 6.080 22.797 6.076 32.931-0.004l54.618-32.785 54.66 32.789c10.133 6.076 22.788 6.076 32.922 0l54.66-32.789 54.618 32.785c10.133 6.080 22.797 6.084 32.93 0.004l22.665-13.598v325.402c-0.043 0.687-0.068 1.387-0.068 2.086zM809.344 522.667c32.371 2.842 56.683 30.99 54.652 63.542-0.043 0.664-0.064 1.329-0.064 1.994v146.261c0 0.665 0.021 1.33 0.064 1.994 2.031 32.552-22.281 60.702-54.652 63.542h-594.824c-32.368-2.839-56.682-30.99-54.65-63.542 0.041-0.664 0.062-1.329 0.062-1.994v-146.304c0-0.665-0.021-1.33-0.062-1.994-2.032-32.541 22.284-60.679 54.642-63.499h52.154v138.667c0 17.673 14.327 32 32 32h426.667c17.673 0 32-14.327 32-32v-138.667h52.011z" />
<glyph unicode="&#xe942;" glyph-name="rocket" d="M886.626 846.509c-23.040 23.040-55.467 32.427-87.467 26.027l-165.973-34.133c-27.307-5.547-52.907-15.36-77.227-28.16-0.853-0.427-1.707-0.853-2.56-1.28-23.893-13.227-45.653-29.44-65.28-49.067l-98.134-98.133-119.040-1.28c-19.627 0-37.973-7.68-52.053-21.76l-117.333-117.332c-13.653-13.653-18.773-33.707-13.653-52.48 5.12-18.347 20.053-32.853 38.827-37.12l118.613-28.16c-4.693-43.093 6.827-86.613 31.147-122.027l-49.92-49.92c-12.373-12.373-12.373-32.853 0-45.227 6.4-6.4 14.507-9.387 22.613-9.387s16.213 2.987 22.613 9.387l49.92 49.92c29.867-20.48 65.707-31.573 103.68-31.573 5.974-0.427 12.374 0 18.347 0.427l28.16-118.613c4.267-18.773 18.347-33.707 37.12-38.827 4.693-1.28 9.813-2.133 14.507-2.133v-0.853c13.653 0 27.307 5.547 37.547 15.787l117.333 117.333c13.653 14.080 21.76 32.427 21.76 52.053l1.28 119.893 98.133 98.133c40.107 39.68 66.987 90.025 78.507 145.065l34.56 165.973c6.827 32-2.987 64.427-26.027 87.467zM258.572 466.351l-98.133 23.040 104.107 104.105c0 0 4.267 2.987 7.253 2.987h55.893c-31.147-37.547-54.613-81.918-69.12-130.132zM636.599 230.831c0-2.56-2.987-7.253-2.987-7.253l-104.107-104.107-23.040 98.987c47.36 14.080 92.16 37.973 130.56 69.547v-57.173h-0.427zM754.359 493.231l-136.107-136.107c-46.933-46.933-108.8-77.653-177.067-87.893-25.174-3.413-51.2 1.28-72.96 13.653l205.227 205.227c12.373 12.373 12.373 32.853 0 45.225s-32.853 12.373-45.227 0l-205.654-205.652c-11.947 22.187-16.64 48.64-12.8 76.373 0.427 3.413 1.28 7.253 1.707 10.667 0.853 1.707 1.707 3.84 2.133 5.973 0.427 2.56 0.853 5.12 0.853 7.68 13.227 56.32 42.24 108.798 82.773 149.758l136.107 136.107c11.093 11.093 23.040 20.907 35.413 29.013 83.2-59.307 155.307-131.413 214.613-214.185-8.533-12.8-17.92-24.747-29.013-35.84zM815.373 605.869c-0.853-3.413-1.28-6.4-2.133-9.813-51.2 66.56-110.507 125.44-177.067 177.067 3.413 0.853 6.4 1.28 9.813 2.133l165.973 34.56c0 0 4.693 0.853 6.827 0.853 8.533-0.427 16.64-3.84 22.613-9.813 7.68-7.68 10.667-18.347 8.533-29.013l-34.56-165.973z" />
<glyph unicode="&#xe943;" d="M744.299 744.292c35.349 0 64-28.654 64-64v-184.364c0-35.345-28.651-64-64-64h-184.363c-35.345 0-64 28.655-64 64v184.364c0 35.346 28.655 64 64 64h184.363zM559.936 808.292c-70.69 0-128-57.308-128-128v-184.364c0-70.69 57.31-128 128-128h184.363c70.694 0 128 57.31 128 128v184.364c0 70.692-57.306 128-128 128h-184.363z" />
<glyph unicode="&#xe944;" d="M624.218 604.167c35.345 0 64-28.654 64-64v-184.361c0-35.349-28.655-64-64-64h-184.363c-35.347 0-64.001 28.651-64.001 64v184.361c0 35.346 28.654 64 64.001 64h184.363zM439.855 668.167c-70.693 0-128.001-57.308-128.001-128v-184.361c0-70.694 57.308-128 128.001-128h184.363c70.69 0 128 57.306 128 128v184.361c0 70.692-57.31 128-128 128h-184.363z" />
<glyph unicode="&#xe945;" d="M464.073 464.064c35.345 0 64-28.655 64-64v-184.363c0-35.349-28.655-64-64-64h-184.364c-35.346 0-64 28.651-64 64v184.363c0 35.345 28.654 64 64 64h184.364zM279.708 528.064c-70.692 0-128-57.31-128-128v-184.363c0-70.694 57.308-128 128-128h184.364c70.69 0 128 57.306 128 128v184.363c0 70.69-57.31 128-128 128h-184.364z" />
<glyph unicode="&#xe946;" glyph-name="server" d="M96 298.667c0 53.018 42.981 96 96 96h640c53.018 0 96-42.982 96-96v-170.667c0-53.018-42.982-96-96-96h-640c-53.019 0-96 42.982-96 96v170.667zM192 330.667c-17.673 0-32-14.327-32-32v-170.667c0-17.673 14.327-32 32-32h640c17.673 0 32 14.327 32 32v170.667c0 17.673-14.327 32-32 32h-640zM192 800c-17.673 0-32-14.327-32-32v-170.667c0-17.673 14.327-32 32-32h277.333c17.673 0 32-14.327 32-32s-14.327-32-32-32h-277.333c-53.019 0-96 42.981-96 96v170.667c0 53.019 42.981 96 96 96h277.333c17.673 0 32-14.327 32-32s-14.327-32-32-32h-277.333zM633.51 795.785l0.038 0.035zM633.549 795.821c62.477 62.459 163.759 62.461 226.236 0h-226.236zM633.51 795.785c-62.468-62.494-62.455-163.802 0.038-226.274 62.494-62.474 163.797-62.457 226.274 0.035 62.473 62.493 62.455 163.799-0.038 226.274zM588.297 841.082c87.475 87.446 229.265 87.446 316.74 0 87.488-87.464 87.509-229.292 0.047-316.782-87.462-87.492-229.291-87.514-316.783-0.051s-87.514 229.292-0.051 316.783l0.047 0.050zM811.959 747.961c12.497-12.497 12.497-32.758 0-45.255l-85.333-85.333c-12.497-12.497-32.755-12.497-45.252 0s-12.497 32.758 0 45.255l85.333 85.333c12.497 12.497 32.755 12.497 45.252 0zM681.374 747.961c12.497 12.497 32.755 12.497 45.252 0l85.333-85.333c12.497-12.497 12.497-32.758 0-45.255s-32.755-12.497-45.252 0l-85.333 85.333c-12.497 12.497-12.497 32.758 0 45.255zM278.4 736c17.673 0 32-14.327 32-32v-42.667c0-17.673-14.327-32-32-32s-32 14.327-32 32v42.667c0 17.673 14.327 32 32 32zM406.4 736c17.673 0 32-14.327 32-32v-42.667c0-17.673-14.327-32-32-32s-32 14.327-32 32v42.667c0 17.673 14.327 32 32 32zM502.4 213.333c0 17.673 14.327 32 32 32h233.6c17.673 0 32-14.327 32-32s-14.327-32-32-32h-233.6c-17.673 0-32 14.327-32 32zM278.4 266.667c17.673 0 32-14.327 32-32v-42.667c0-17.673-14.327-32-32-32s-32 14.327-32 32v42.667c0 17.673 14.327 32 32 32zM406.4 266.667c17.673 0 32-14.327 32-32v-42.667c0-17.673-14.327-32-32-32s-32 14.327-32 32v42.667c0 17.673 14.327 32 32 32z" />
<glyph unicode="&#xe947;" glyph-name="setting" d="M407.885 343.893c27.733-27.733 64.853-43.093 104.107-43.093s76.373 15.36 104.107 43.093c27.733 27.733 43.093 64.853 43.093 104.107s-15.36 76.373-43.093 104.108c-55.467 55.467-152.747 55.467-208.213 0-27.733-27.735-43.093-64.855-43.093-104.108s15.36-76.373 43.093-104.107zM453.111 506.88c15.787 15.787 36.693 24.32 58.88 24.32s43.093-8.533 58.88-24.32c15.787-15.787 24.32-36.693 24.32-58.88s-8.533-43.093-24.32-58.88c-31.573-31.573-86.187-31.573-117.76 0-15.787 15.787-24.32 36.693-24.32 58.88s8.533 43.093 24.32 58.88zM451.853 32.009h120.32l0.427-0.427c34.56 0 64.427 25.6 69.547 60.16l9.387 64.427c0.427 2.133 2.56 4.267 4.693 5.12 11.093 5.547 22.187 11.947 32.427 18.773 0.107 0.055 0.247 0.137 0.418 0.23 1.182 0.678 3.797 2.172 6.409 1.050l60.587-24.32c32.427-12.8 69.547 0 87.040 30.293l60.16 104.107c17.493 29.867 9.813 69.12-17.493 90.453l-53.76 42.24c0.853 7.68 0.853 15.36 0.853 23.467s-0.427 15.787-0.853 23.467l53.76 42.24c27.307 21.335 34.987 60.588 17.493 90.455l-60.16 104.107c-17.493 30.293-54.613 43.093-87.040 30.293l-60.587-24.32c-2.304-1.152-5.299 0.461-6.494 1.106-0.137 0.072-0.247 0.131-0.333 0.174-10.24 6.827-21.333 13.227-32.427 18.773-2.133 0.853-4.693 2.987-4.693 5.12l-9.387 64.427c-4.693 34.133-34.987 60.16-69.547 60.16h-120.32c-34.558 0-64.852-25.6-69.545-60.16l-9.387-64.427c-0.427-2.987-3.84-4.693-4.693-5.12-11.52-5.547-22.187-11.947-32.427-18.773-0.853-0.427-4.267-2.133-6.827-1.28l-60.587 24.32c-32.427 13.227-69.547 0-87.040-29.867l-60.16-104.107c-17.493-30.293-9.813-69.12 17.493-90.455l53.76-42.24c-0.853-7.68-0.853-15.36-0.853-23.467s0-15.787 0.853-23.467l-53.76-42.24c-27.307-21.333-34.987-60.16-17.493-90.453l60.16-103.68c17.067-30.293 54.613-43.093 87.040-30.293l60.587 24.32c2.376 0.794 5.12-0.619 6.184-1.169 0.082-0.043 0.154-0.077 0.216-0.111 10.24-7.253 21.333-13.653 32.427-19.2 0.173-0.115 0.386-0.247 0.624-0.393 1.519-0.939 4.070-2.513 4.070-4.727l9.387-64.427c5.12-34.133 34.987-60.16 69.545-60.16zM371.641 234.249c-12.373 8.107-26.027 12.373-40.107 12.373l0.427-0.427c-8.533 0-17.493-1.707-25.6-5.12l-60.587-24.32c-2.987-1.28-5.973-0.427-7.68 2.56l-60.16 104.107c-1.28 2.56-0.853 5.973 1.707 8.107l67.84 52.907c8.96 6.827 13.227 17.92 11.947 29.013-1.707 11.093-2.56 22.187-2.56 33.707s1.28 22.613 2.56 33.707c1.28 11.093-2.987 22.187-11.947 29.013l-67.84 52.908c-2.56 2.133-3.413 5.546-1.707 8.106l60.16 104.107c1.28 2.56 4.693 3.84 7.68 2.56l60.587-24.32c21.333-8.533 45.653-5.973 65.707 7.253 8.533 5.547 17.067 10.667 26.027 15.36 20.907 10.667 35.412 30.293 38.825 52.907l9.387 64.853c0.853 3.413 3.413 5.547 6.4 5.547h120.32c3.413 0 5.973-2.56 6.4-5.547l9.387-64.427c3.413-22.613 17.92-42.667 39.253-53.333 8.96-4.267 17.493-9.387 25.6-14.933 19.627-13.227 44.373-15.787 65.707-7.253l60.587 24.32c2.987 1.28 5.973 0 7.68-2.56l60.16-104.107c1.28-2.56 0.853-6.4-1.707-8.107l-67.84-52.908c-8.96-6.827-13.227-17.92-11.947-29.013 1.707-11.093 2.56-22.187 2.56-33.707s-1.28-22.613-2.56-33.707c-1.707-11.093 2.987-22.187 11.947-29.013l67.84-52.907c2.56-1.707 3.413-5.547 1.707-8.107l-60.16-104.107c-1.28-2.56-4.693-3.84-7.68-2.56l-60.587 24.32c-21.333 8.96-46.080 5.973-66.133-7.253-8.107-5.547-16.64-10.667-25.6-14.933-21.333-10.667-35.84-30.72-39.253-53.333l-9.387-64.427c-0.427-3.413-3.413-5.547-6.4-5.547h-120.32c-3.413 0-5.973 2.56-6.4 5.547l-9.387 64.427c-2.987 22.187-17.918 42.24-38.825 52.907-8.96 4.693-17.493 9.813-26.027 15.36z" />
<glyph unicode="&#xe948;" glyph-name="suitcase" d="M426.619 821.479c-64.821 0-117.369-52.548-117.369-117.369v-53.381h-96.048c-64.821 0-117.369-52.548-117.369-117.369v-384.159c0-64.823 52.548-117.372 117.369-117.372h597.584c64.819 0 117.367 52.548 117.367 117.372v384.159c0 64.821-52.548 117.369-117.367 117.369h-96.060v53.381c0 64.821-52.548 117.369-117.372 117.369h-170.736zM650.726 650.729h-277.476v53.381c0 29.475 23.894 53.369 53.369 53.369h170.736c29.478 0 53.372-23.894 53.372-53.369v-53.381zM373.25 586.729h277.476v-490.9h-277.476v490.9zM309.25 586.729v-490.9h-96.048c-29.475 0-53.369 23.898-53.369 53.372v384.159c0 29.475 23.894 53.369 53.369 53.369h96.048zM714.726 95.829v490.9h96.060c29.474 0 53.367-23.894 53.367-53.369v-384.159c0-29.474-23.893-53.372-53.367-53.372h-96.060z" />
<glyph unicode="&#xe949;" glyph-name="sun" d="M512 906.667c17.673 0 32-14.327 32-32v-85.333c0-17.673-14.327-32-32-32s-32 14.327-32 32v85.333c0 17.673 14.327 32 32 32zM685.478 621.477c95.808-95.807 95.808-251.148 0-346.956s-251.149-95.808-346.956 0c-95.808 95.808-95.808 251.149 0 346.956s251.148 95.808 346.956 0zM640.222 576.222c-70.814 70.815-185.63 70.815-256.444 0s-70.815-185.63 0-256.444c70.814-70.814 185.63-70.814 256.444 0s70.814 185.63 0 256.444zM544 106.667c0 17.673-14.327 32-32 32s-32-14.327-32-32v-85.333c0-17.673 14.327-32 32-32s32 14.327 32 32v85.333zM836.297 772.273c12.497-12.497 12.497-32.758 0-45.255l-30.293-30.293c-12.497-12.497-32.759-12.497-45.257 0s-12.497 32.758 0 45.255l30.293 30.293c12.497 12.497 32.759 12.497 45.257 0zM263.254 154.018c12.497 12.497 12.497 32.759 0 45.257s-32.758 12.497-45.255 0l-30.293-30.293c-12.497-12.497-12.497-32.759 0-45.257s32.758-12.497 45.255 0l30.293 30.293zM821.333 448c0 17.673 14.327 32 32 32h85.333c17.673 0 32-14.327 32-32s-14.327-32-32-32h-85.333c-17.673 0-32 14.327-32 32zM85.333 480c-17.673 0-32-14.327-32-32s14.327-32 32-32h85.333c17.673 0 32 14.327 32 32s-14.327 32-32 32h-85.333zM760.747 199.275c12.497 12.497 32.759 12.497 45.257 0l30.293-30.293c12.497-12.497 12.497-32.759 0-45.257s-32.759-12.497-45.257 0l-30.293 30.293c-12.497 12.497-12.497 32.759 0 45.257zM232.961 772.273c-12.497 12.497-32.758 12.497-45.255 0s-12.497-32.758 0-45.255l30.293-30.293c12.497-12.497 32.758-12.497 45.255 0s12.497 32.758 0 45.255l-30.293 30.293z" />
<glyph unicode="&#xe94a;" glyph-name="transfer-send" d="M213.333 800c-29.474 0-53.333-23.86-53.333-53.333v-341.333c0-29.474 23.86-53.333 53.333-53.333h264.077l-9.37 9.374c-12.497 12.497-12.497 32.755 0 45.252s32.755 12.497 45.252 0l64.478-64.486c5.444-5.679 8.815-13.367 8.896-21.837v-0.606c-0.081-8.469-3.452-16.158-8.896-21.837l-0.478-0.486-64-64c-12.497-12.497-32.755-12.497-45.252 0s-12.497 32.755 0 45.252l9.37 9.374h-264.077c-64.82 0-117.333 52.514-117.333 117.333v341.333c0 64.82 52.514 117.333 117.333 117.333h469.333c64.819 0 117.333-52.514 117.333-117.333v-138.667h10.667c64.819 0 117.333-52.514 117.333-117.333v-341.333c0-64.819-52.514-117.333-117.333-117.333h-426.667c-64.82 0-117.333 52.514-117.333 117.333v42.667c0 17.673 14.327 32 32 32s32-14.327 32-32v-42.667c0-29.474 23.86-53.333 53.333-53.333h426.667c29.474 0 53.333 23.859 53.333 53.333v341.333c0 29.474-23.859 53.333-53.333 53.333h-426.667c-29.474 0-53.333-23.859-53.333-53.333v-42.667c0-17.673-14.327-32-32-32s-32 14.327-32 32v42.667c0 64.82 52.514 117.333 117.333 117.333h352v138.667c0 29.474-23.859 53.333-53.333 53.333h-469.333z" />
<glyph unicode="&#xe94b;" glyph-name="trash1" d="M564.915 463.791l117.751-18.334-85.333-87.501 20.041-123.29-105.374 58.458-105.375-58.458 20.042 123.29-85.333 87.501 117.751 18.334 52.915 112.209 52.915-112.209zM631.876 864c44.373 0 80.247-35.845 80.247-79.792v-64h141.21c17.92 0 32-14.080 32-32-0.004-17.917-14.080-32-32-32h-23.458l-39.249-506.043c-5.129-66.974-60.604-118.165-127.586-118.165h-302.082c-66.979 0-122.444 51.191-128 118.165l-38.833 506.043h-23.458c-17.918 0-31.997 14.509-32 32 0 17.493 14.080 32 32 32h141.208v64c0 21.333 8.567 41.4 23.5 56.334 14.932 15.352 35.422 23.458 56.75 23.458h239.751zM258.542 656.208l38.417-501.332c2.562-33.276 30.296-58.876 64-58.876h302.082c33.707 0 61.44 25.6 64 58.876l38.417 501.332h-506.915zM392.125 800c-4.267 0-8.555-1.722-11.542-4.708-2.981-2.985-4.708-6.821-4.708-11.084v-64h272.249v64c0 8.96-7.287 15.792-16.247 15.792h-239.751z" />
<glyph unicode="&#xe94c;" d="M541.116 346.88v-145.6c0-40.32 32.64-72.64 72.64-72.64h145.6c40.32 0 72.64 32.64 72.64 72.64v145.6c0 40.32-32.64 72.64-72.64 72.64h-145.6c-6.72 0-13.12-1.28-19.52-2.88l-50.24-50.24c-1.6-6.080-2.88-12.8-2.88-19.52z" />
<glyph unicode="&#xe94d;" d="M264.637 419.84c-40 0-72.64-32.64-72.64-72.96v-105.28l178.24 178.24h-105.6z" />
<glyph unicode="&#xe94e;" d="M410.237 128.96c39.999 0 72.639 32.32 72.639 72.64v103.68l-176.319-176.32h103.68z" />
<glyph unicode="&#xe94f;" d="M613.756 767.040c-40 0-72.64-32.32-72.64-72.64v-103.68l176.32 176.32h-103.68z" />
<glyph unicode="&#xe950;" d="M759.356 476.16c40 0 72.64 32.64 72.64 72.96v105.28l-178.24-178.24h105.6z" />
<glyph unicode="&#xe951;" d="M482.876 549.12v145.6c0 40.32-32.64 72.64-72.639 72.64h-145.6c-40.32 0-72.64-32.64-72.64-72.64v-145.6c0-40.32 32.64-72.64 72.64-72.64h145.6c6.72 0 13.12 1.28 19.519 2.88l50.24 50.24c1.6 6.080 2.88 12.8 2.88 19.52z" />
<glyph unicode="&#xe952;" d="M137.277 119.040c-12.48-12.8-12.48-32.96 0-45.76 6.4-6.080 14.72-9.28 23.040-9.28s16.32 3.2 22.72 9.28l703.679 703.68c12.48 12.8 12.48 32.96 0 45.76-6.4 6.080-14.72 9.28-23.040 9.28s-16.32-3.2-22.72-9.28l-703.679-703.68z" />
<glyph unicode="&#xe953;" glyph-name="wizard" d="M512 874.667c43.913-214.85 211.819-382.754 426.667-426.667-214.848-43.913-382.754-211.819-426.667-426.667-43.913 214.848-211.817 382.754-426.667 426.667 214.85 43.913 382.754 211.817 426.667 426.667z" />
<glyph unicode="&#xe954;" d="M855.68 659.52c-8.32-1.92-16.96-3.52-26.24-3.52-14.4 0-27.84 2.88-40.64 8l-128.96-193.28c14.72-16.96 23.68-38.72 23.68-62.72 0-52.8-43.2-96-96-96s-96 43.2-96 96c0 17.92 5.12 34.56 13.76 48.96l-28.48 28.48c-14.4-8.32-30.72-13.76-48.32-13.76-52.799 0-95.999 43.2-95.999 96s43.2 96 95.999 96c52.8 0 96-43.2 96-96 0-17.6-5.12-34.24-13.76-48.32l28.8-28.8c14.080 8.32 30.4 13.44 48 13.44 11.52 0 22.4-2.24 32.64-6.080l128.32 192.64c-19.52 20.16-31.36 47.36-31.36 77.44 0 8.96 1.28 17.28 3.2 25.6-45.76 24.32-97.92 38.4-153.6 38.4-180.799 0-327.359-146.56-327.359-327.36 0-63.68 18.56-122.88 49.92-173.12l-164.16-164.16c-4.16-68.8 37.44-103.040 79.040-103.040 19.2 0 38.72 7.36 53.44 22.080l138.88 138.88c49.599-30.4 107.519-48 169.919-48 180.8 0 327.36 146.56 327.36 327.36 0 56-14.080 108.8-39.040 154.88h0.96z" />
<glyph unicode="&#xe955;" d="M428.8 519.68c26.513 0 48 21.49 48 48s-21.487 48-48 48c-26.508 0-47.999-21.49-47.999-48s21.49-48 47.999-48z" />
<glyph unicode="&#xe956;" d="M587.84 360c26.513 0 48 21.491 48 48s-21.487 48-48 48c-26.509 0-48-21.491-48-48s21.491-48 48-48z" />
<glyph unicode="&#xe957;" d="M829.76 704c35.349 0 64 28.654 64 64s-28.651 64-64 64c-35.345 0-64-28.654-64-64s28.655-64 64-64z" />
<glyph unicode="&#xe958;" glyph-name="award-fill" d="M628.463 784.853c17.92-9.813 34.56-22.613 49.493-37.547 86.187-86.187 91.307-222.72 15.36-314.88-4.693-5.973-9.813-11.52-15.36-17.067-8.96-8.96-18.773-17.067-29.013-24.32-2.987-2.56-5.973-4.693-8.96-6.4-32.363-21.158-68.727-33.502-105.758-37.026-16.329-1.549-32.781-1.387-49.079 0.486-35.43 4.083-70.117 16.26-101.131 36.54-2.987 1.707-5.973 3.84-8.96 6.4-10.24 7.253-20.053 15.36-29.013 24.32-5.547 5.547-10.667 11.093-15.36 17.067-75.947 92.16-70.827 228.693 15.36 314.88 14.933 14.933 31.573 27.733 49.493 37.547 36.047 20.691 76.256 31.037 116.465 31.040 40.205-0.003 80.414-10.349 116.463-31.040zM308.463 784.853c-109.227-108.8-112.64-283.733-9.813-396.373l0.017-0.021v-319.134c0-14.933 7.68-28.587 20.053-36.267 12.8-7.68 28.587-8.533 41.813-1.707l151.467 75.52 151.467-75.52c13.227-6.827 29.013-5.973 41.813 1.707 12.373 7.68 20.053 21.333 20.053 36.267v319.177c102.81 112.64 99.388 287.558-9.83 396.352-112.213 112.64-294.827 112.64-407.040 0zM341.333 69.325v280.316c9.864-7.398 19.951-13.905 30.42-19.84 4.023-2.283 8.102-4.48 12.246-6.609v-184.738l108.8 54.187c11.947 6.4 26.453 6.4 38.4 0l108.8-54.187v184.738c14.933 7.68 29.013 16.213 42.667 26.453v-280.32l-170.667 85.333-170.667-85.333zM487.667 391.040c-40.529 5.124-80.204 23.471-111.347 54.613-75.093 75.093-75.093 196.267 0 271.36s196.267 75.093 271.36 0c75.093-75.093 75.093-196.267 0-271.36-31.147-31.147-70.827-49.493-111.36-54.613h-0.026c-11.836-1.553-23.667-1.98-35.503-1.259-4.378 0.265-8.751 0.683-13.124 1.259z" />
<glyph unicode="&#xe959;" glyph-name="award-linear" d="M670.391 734.392c-87.475 87.477-229.308 87.477-316.783 0-87.477-87.477-87.478-229.308 0-316.783 87.476-87.479 229.308-87.479 316.783 0 87.471 87.467 87.454 229.303 0 316.783 0.009-0.009-0.009 0.008 0 0zM715.648 779.647c-112.474 112.471-294.823 112.471-407.295 0h407.295zM715.648 779.647c112.469-112.471 112.469-294.821 0-407.295-112.474-112.469-294.824-112.469-407.295 0-112.471 112.474-112.471 294.824 0 407.295zM341.335 417.579c17.673 0 32-14.327 32-32v-269.803l124.355 62.178c9.011 4.506 19.614 4.506 28.625 0l124.352-62.178v269.803c0 17.673 14.327 32 32 32 17.677 0 32-14.327 32-32v-321.579c0-11.089-5.739-21.389-15.177-27.221-9.434-5.828-21.214-6.362-31.134-1.399l-156.356 78.178-156.354-78.178c-9.92-4.962-21.7-4.429-31.134 1.399-9.434 5.833-15.177 16.132-15.177 27.221v321.579c0 17.673 14.327 32 32 32z" />
<glyph unicode="&#xe95a;" glyph-name="click" d="M256 736c0 82.466 66.868 149.333 149.333 149.333s149.333-66.868 149.333-149.333c0-17.673 14.327-32 32-32s32 14.327 32 32c0 117.812-95.522 213.333-213.333 213.333s-213.333-95.522-213.333-213.333c0-17.673 14.327-32 32-32s32 14.327 32 32zM501.346 613.204v122.796c0 53.001-42.999 96-96.002 96-53.001 0-96-42.999-96-96v-296.077l-25.757 25.754c-38.779 38.78-101.708 38.78-140.487 0-32.71-32.708-37.798-83.959-12.146-122.47l150.444-225.621c53.418-80.102 143.319-128.252 239.617-128.252h76.331c159.070 0 288 128.93 288 288v160c0 53.001-42.999 96-96 96-15.223 0-29.619-3.546-42.406-9.856-15.868 31.165-48.252 52.523-85.606 52.523-15.215 0-29.611-3.544-42.398-9.852-15.863 31.163-48.252 52.519-85.602 52.519-11.217 0-21.982-1.925-31.987-5.463zM437.346 524.139c-0.009-0.491-0.013-0.981-0.013-1.472 0-0.286 0.004-0.567 0.013-0.849v-73.818c0-17.673 14.323-32 32-32 17.673 0 32 14.327 32 32v75.516c0.448 17.263 14.618 31.151 31.987 31.151 17.655 0 32-14.345 32-32v-74.667c0-17.673 14.327-32 32-32s32 14.327 32 32v32c0 17.655 14.345 32 32 32s32-14.345 32-32v-74.667c0-17.673 14.327-32 32-32s32 14.327 32 32v31.151c0.009 0.282 0.013 0.567 0.013 0.849 0 17.655 14.345 32 32 32 17.651 0 32-14.345 32-32v-160c0-123.725-100.279-224-224-224h-76.331c-74.884 0-144.813 37.444-186.371 99.759l-150.442 225.621c-8.729 13.116-6.995 30.562 4.153 41.711 13.786 13.786 36.191 13.786 49.977 0l80.384-80.384c9.152-9.152 22.916-11.891 34.873-6.938s19.754 16.623 19.754 29.564v373.333c0 17.655 14.345 32 32 32s32.002-14.345 32.002-32v-211.861z" />
<glyph unicode="&#xe95b;" glyph-name="code" d="M594.893 820.563c17.25-3.839 28.122-20.935 24.286-38.186l-151.893-682.669c-3.84-17.25-20.937-28.122-38.187-24.286-17.251 3.84-28.125 20.937-24.286 38.187l151.894 682.668c3.84 17.251 20.937 28.125 38.187 24.286zM745.374 641.294c12.497 12.497 32.755 12.497 45.252 0l170.667-170.668c12.497-12.497 12.497-32.755 0-45.252l-170.667-170.667c-12.497-12.497-32.755-12.497-45.252 0s-12.497 32.755 0 45.252l148.036 148.041-148.036 148.039c-12.497 12.497-12.497 32.758 0 45.255zM278.627 596.039c12.497 12.497 12.497 32.758 0 45.255s-32.758 12.497-45.255 0l-170.667-170.668c-12.497-12.497-12.497-32.755 0-45.252l170.667-170.667c12.497-12.497 32.758-12.497 45.255 0s12.497 32.755 0 45.252l-148.039 148.041 148.039 148.039z" />
<glyph unicode="&#xe95c;" glyph-name="color-ball-fill" d="M512 682.667c129.613 0 234.667-105.053 234.667-234.667s-105.054-234.667-234.667-234.667c-129.613 0-234.667 105.054-234.667 234.667s105.053 234.667 234.667 234.667z" />
<glyph unicode="&#xe95d;" glyph-name="color-ball-outline" d="M512 640c-106.049 0-192-85.951-192-192s85.951-192 192-192c106.048 0 192 85.952 192 192s-85.952 192-192 192zM512 213.333c-129.613 0-234.667 105.054-234.667 234.667s105.053 234.667 234.667 234.667c129.613 0 234.667-105.053 234.667-234.667s-105.054-234.667-234.667-234.667z" />
<glyph unicode="&#xe95e;" glyph-name="compass-fill" d="M512 496.166c26.505 0 48-21.491 48-48 0-26.505-21.495-47.996-48-48-26.505 0-48 21.495-48 48 0 26.509 21.491 48 48 48zM512.043 864.125c229.359 0 415.953-186.601 415.957-415.959 0-229.363-186.594-415.957-415.957-415.957-229.359 0.004-415.959 186.598-415.959 415.957 0.006 229.355 186.604 415.953 415.959 415.959zM710.541 659.084c-3.068 0.629-6.259 0.371-9.165-0.792l-234.377-93.75c-16.098-6.438-30.741-16.075-42.999-28.334-12.259-12.257-21.896-26.905-28.333-42.999l-93.75-234.377c-1.163-2.906-1.421-6.097-0.791-9.165 0.629-3.063 2.126-5.875 4.333-8.085 2.214-2.214 5.057-3.746 8.125-4.373 3.058-0.623 6.226-0.324 9.125 0.832l234.416 93.751c16.090 6.434 30.703 16.077 42.961 28.331 12.254 12.254 21.892 26.867 28.331 42.961l93.751 234.415c1.156 2.898 1.455 6.067 0.832 9.125-0.627 3.068-2.159 5.911-4.373 8.125-2.214 2.207-5.026 3.704-8.085 4.334z" />
<glyph unicode="&#xe95f;" glyph-name="compass-linear" d="M710.498 659.125c3.063-0.628 5.871-2.166 8.085-4.375 2.21-2.211 3.742-5.021 4.373-8.083 0.631-3.068 0.333-6.259-0.832-9.167l-93.751-234.377c-6.434-16.094-16.073-30.741-28.331-42.999-12.258-12.25-26.867-21.897-42.961-28.331l-234.373-93.751c-2.904-1.161-6.102-1.459-9.167-0.832-3.068 0.627-5.911 2.159-8.125 4.373-2.205 2.21-3.703 5.026-4.333 8.085-0.628 3.059-0.367 6.263 0.792 9.165l93.792 234.377c6.437 16.094 16.074 30.741 28.333 42.999 12.254 12.253 26.867 21.898 42.957 28.334l234.377 93.75c2.906 1.163 6.101 1.46 9.165 0.833zM502.665 495.249c-9.301-1.852-17.869-6.417-24.58-13.124s-11.273-15.279-13.124-24.585c-1.852-9.31-0.926-18.978 2.705-27.75 3.635-8.768 9.818-16.269 17.711-21.538 7.881-5.265 17.148-8.081 26.624-8.085 12.723 0 24.96 5.047 33.958 14.042 9.003 9.003 14.042 21.231 14.042 33.958 0 9.493-2.807 18.773-8.085 26.667-5.274 7.889-12.77 14.033-21.538 17.668-8.768 3.627-18.406 4.595-27.712 2.748zM511.834 864.125c229.653 0 415.991-186.308 416-415.959-0.004-229.653-186.347-416-416-416-229.649 0.009-415.956 186.351-415.959 416 0.007 229.646 186.313 415.952 415.959 415.959zM511.834 800.125c-194.302-0.007-351.952-157.656-351.959-351.959 0.003-194.304 157.654-351.991 351.959-352 194.308 0 351.996 157.692 352 352-0.009 194.307-157.692 351.959-352 351.959z" />
<glyph unicode="&#xe960;" glyph-name="complaints" d="M248.542 437.333c35.827-0.009 65.702-25.596 72.958-59.29l29.833 20.041c53.757 36.262 121.605 47.782 184.752 32l97.289-24.333c43.093-10.671 72.96-49.502 72.96-93.875v-11.917l73.374 55.040c37.969 28.582 92.169 24.738 125.875-8.956h0.418c37.547-37.973 37.547-98.995 0-136.542l-87.876-88.337c-28.16-28.582-64-47.347-103.249-55.458l-124.582-25.165c-12.8-2.56-26.483-3.866-39.71-4.292-16.631 0-33.263 2.163-49.041 5.999l-112.667 28.169c-11.083 2.982-22.168 4.25-33.25 4.25h-39.708c-11.946-25.165-37.946-42.658-67.375-42.667h-84.5c-40.96 0-74.667 33.707-74.667 74.667v256c0 40.96 33.707 74.667 74.667 74.667h84.5zM164.042 373.333c-5.973 0-10.667-4.693-10.667-10.667v-256c0-5.973 4.693-10.667 10.667-10.667h84.5c5.964 0.009 10.667 4.702 10.667 10.667v256c0 5.965-4.703 10.658-10.667 10.667h-84.5zM520.29 367.791c-45.222 11.516-94.292 2.982-133.54-23.040l-63.541-42.667v-163.418h32.416c16.631 0 33.263-2.121 49.042-5.956l112.666-28.169c19.622-5.12 40.533-5.559 60.582-1.293l124.582 25.169c26.88 5.547 51.179 18.372 70.379 37.999l87.915 88.29c12.8 12.8 12.796 33.711 0 46.084-11.093 11.093-29.449 12.386-42.249 2.999l-102.835-77.248c-20.045-15.351-45.214-23.458-70.374-23.458h-26.458c-2.987-0.427-5.973-0.418-8.96-0.418h-63.582c-17.493 0-32 14.507-32 32v0.832c0 17.067 14.507 31.582 32 31.586h68.25c15.356 2.56 27.328 15.791 27.332 32v12.791c0 14.933-10.253 28.169-24.333 31.582l-97.293 24.333zM675.627 864.417c66.129-0.003 124.582-42.689 144.205-105.833 19.618-61.435-1.728-127.552-52.497-166.375v-51.625c0-45.228-36.689-81.917-81.916-81.917h-19.627c-45.222 0.009-81.916 36.693-81.916 81.917v51.625c-51.191 38.825-72.077 104.943-52.459 166.375 20.053 63.147 78.076 105.833 144.209 105.833zM648.29 578.125v-37.542c0-9.814 8.145-17.917 17.958-17.917h20.045c9.809 0.004 17.916 8.107 17.916 17.917v37.542h-55.919zM676.041 800.417c-38.391-0.002-71.676-24.741-83.622-61-11.52-35.837 1.702-75.104 32.414-97.292h102.835c30.293 21.76 43.52 61.025 32 97.292-11.524 36.686-45.231 61-83.627 61z" />
<glyph unicode="&#xe961;" glyph-name="copyright" d="M438.583 448c0 41.25 33.417 74.667 74.667 74.667 18.842 0 35.977-7.014 49.195-18.667 13.252-11.691 33.476-10.419 45.163 2.837 11.691 13.252 10.419 33.475-2.837 45.164-24.333 21.457-56.346 34.665-91.52 34.665-76.595 0-138.667-62.071-138.667-138.667s62.071-138.667 138.667-138.667c35.174 0 67.153 13.282 91.465 34.615 13.282 11.657 14.601 31.876 2.944 45.158s-31.876 14.601-45.158 2.944c-13.321-11.691-30.494-18.718-49.25-18.718-41.25 0-74.667 33.417-74.667 74.667zM512 864c-229.769 0-416-186.231-416-416s186.231-416 416-416c229.769 0 416 186.231 416 416s-186.231 416-416 416zM160 448c0 194.423 157.577 352 352 352s352-157.577 352-352c0-194.423-157.577-352-352-352s-352 157.577-352 352z" />
<glyph unicode="&#xe962;" d="M511.991 493.769c93.316 0 168.96 75.645 168.96 168.959s-75.644 168.96-168.96 168.96c-93.312 0-168.958-75.646-168.958-168.96s75.646-168.959 168.958-168.959z" />
<glyph unicode="&#xe963;" d="M883.191 356.169l-67.84 31.36-245.12-113.6c-18.24-8.64-37.76-12.8-58.24-12.8s-39.68 4.16-58.24 12.8l-245.118 113.6-67.84-31.36c-17.28-8-17.28-32.64 0-40.32l333.118-154.24c24-11.2 51.84-11.2 75.84 0l333.12 154.24c17.28 8 17.28 32.32 0 40.32h0.32z" />
<glyph unicode="&#xe964;" d="M500.766 740.263l-66.069-66.072c-6.251-6.249-6.251-16.379 0-22.627l66.069-66.072c6.251-6.249 16.38-6.249 22.63 0l66.069 66.072c6.251 6.248 6.251 16.379 0 22.627l-66.069 66.072c-6.251 6.249-16.38 6.249-22.63 0z" />
<glyph unicode="&#xe965;" d="M883.191 512.329l-167.040 77.439c-30.080-83.839-110.080-143.999-204.16-143.999-94.078 0-174.078 60.16-204.158 143.999l-167.040-77.439c-17.28-8-17.28-32.64 0-40.32l333.118-154.24c24-11.2 51.84-11.2 75.84 0l333.12 154.24c17.28 8 17.28 32.32 0 40.32h0.32z" />
<glyph unicode="&#xe966;" d="M704.311 64c106.039 0 192 85.961 192 192s-85.961 192-192 192c-106.039 0-192-85.961-192-192s85.961-192 192-192z" />
<glyph unicode="&#xe967;" d="M687.334 340.757l-67.883-67.878c-9.374-9.374-9.374-24.572 0-33.941l67.883-67.883c9.37-9.374 24.567-9.374 33.937 0l67.883 67.883c9.374 9.37 9.374 24.567 0 33.941l-67.883 67.878c-9.37 9.374-24.567 9.374-33.937 0z" />
<glyph unicode="&#xe968;" d="M740.151 629.44l-38.4 68.16c-16 28.48-51.2 40.32-80.64 26.24l-47.68-22.080c-9.92 6.72-19.2 12.48-29.44 17.6l-5.12 55.36c-3.2 32.64-30.080 57.28-62.4 57.28h-76.481c-32.64 0-59.52-24.96-62.4-57.28l-5.12-55.36c-10.24-5.12-19.52-10.88-29.44-17.6l-47.68 22.080c-29.44 14.080-64.64 1.92-80.64-26.24l-38.4-68.16c-16-27.84-8.32-63.68 17.6-82.56l42.88-31.68c-0.64-6.080-0.96-12.48-0.96-19.2s0.64-12.8 0.96-19.2l-42.88-31.68c-25.92-19.2-33.6-54.72-17.6-82.56l38.4-68.16c16-28.8 51.2-40.32 80.64-26.24l47.68 22.080c9.92-6.72 19.2-12.48 29.44-17.6l5.12-55.36c3.2-32.64 30.080-57.28 62.4-57.28h76.481c2.56 0 5.12 0.32 7.68 0.64-12.8 29.12-19.84 61.44-19.84 95.36 0 31.36 6.72 61.44 17.92 88.96 13.44 29.76 36.16 64.32 74.88 100.16 34.88 27.2 77.12 45.12 123.52 49.6 0 0.32 0 0.64 0 1.28 0 6.72-0.64 12.8-0.96 19.2l42.88 31.68c25.92 19.2 33.6 54.72 17.6 82.56zM438.391 384c-61.761 0-112.001 50.24-112.001 112s50.24 112 112.001 112c61.76 0 112-50.24 112-112s-50.24-112-112-112z" />
<glyph unicode="&#xe969;" glyph-name="cup" d="M269.179 394.667h-13.179c-88.372 0-160 71.629-160 160v85.333c0 41.225 33.442 74.667 74.667 74.667h96v53.333c0 41.225 33.442 74.667 74.667 74.667h341.333c41.225 0 74.667-33.442 74.667-74.667v-53.333h96c41.225 0 74.667-33.442 74.667-74.667v-85.333c0-88.371-71.629-160-160-160h-13.18c-15.343-96.721-99.119-170.667-200.154-170.667h-10.667v-106.667h96c17.673 0 32-14.327 32-32s-14.327-32-32-32h-256c-17.673 0-32 14.327-32 32s14.327 32 32 32h96v106.667h-10.667c-101.035 0-184.81 73.946-200.154 170.667zM341.333 778.667c-5.879 0-10.667-4.788-10.667-10.667v-341.333c0-76.578 62.089-138.667 138.667-138.667h85.333c76.578 0 138.667 62.089 138.667 138.667v341.333c0 5.879-4.787 10.667-10.667 10.667h-341.333zM266.667 458.667v192h-96c-5.879 0-10.667-4.788-10.667-10.667v-85.333c0-53.026 42.974-96 96-96h10.667zM853.333 650.667h-96v-192h10.667c53.026 0 96 42.974 96 96v85.333c0 5.879-4.787 10.667-10.667 10.667z" />
<glyph unicode="&#xe96a;" glyph-name="database" d="M274.5 685.458c12.576 12.574 33.573 13.757 47.375 0.791 0.282-0.262 0.599-0.518 0.875-0.791 0.065-0.065 0.108-0.18 0.167-0.25 0.117-0.12 0.297-0.215 0.416-0.333 0.255-0.268 0.467-0.599 0.709-0.875 11.993-13.419 11.594-33.904-1.292-46.792-13.35-13.35-34.9-13.35-48.25 0-13.335 13.351-13.345 34.905 0 48.25zM725.333 693.333c17.673 0 32-14.327 32-32s-14.327-32-32-32h-256c-17.673 0-32 14.327-32 32s14.327 32 32 32h256zM725.333 864c111.923 0 202.667-90.743 202.667-202.667s-90.743-202.667-202.667-202.667h-181.333v-64h224c41.225 0 74.667-33.442 74.667-74.667v-57.835c49.246-13.931 85.333-59.115 85.333-112.832 0-64.819-52.514-117.333-117.333-117.333s-117.333 52.514-117.333 117.333c0 53.717 36.087 98.901 85.333 112.832v57.835c0 5.879-4.787 10.667-10.667 10.667h-224v-68.501c49.246-13.931 85.333-59.115 85.333-112.832 0-64.819-52.514-117.333-117.333-117.333s-117.333 52.514-117.333 117.333c0 53.717 36.087 98.901 85.333 112.832v68.501h-224c-5.879 0-10.667-4.787-10.667-10.667v-57.835c49.246-13.931 85.333-59.115 85.333-112.832 0-64.819-52.514-117.333-117.333-117.333s-117.333 52.514-117.333 117.333c0 53.717 36.087 98.901 85.333 112.832v57.835c0 41.225 33.442 74.667 74.667 74.667h224v64h-181.333c-111.924 0-202.667 90.743-202.667 202.667s90.743 202.667 202.667 202.667h426.667zM213.333 202.667c-29.474 0-53.333-23.859-53.333-53.333s23.86-53.333 53.333-53.333c29.474 0 53.333 23.859 53.333 53.333s-23.86 53.333-53.333 53.333zM512 202.667c-29.474 0-53.333-23.859-53.333-53.333s23.859-53.333 53.333-53.333c29.474 0 53.333 23.859 53.333 53.333s-23.859 53.333-53.333 53.333zM810.667 202.667c-29.474 0-53.333-23.859-53.333-53.333s23.859-53.333 53.333-53.333c29.474 0 53.333 23.859 53.333 53.333s-23.859 53.333-53.333 53.333zM298.667 800c-76.578 0-138.667-62.089-138.667-138.667s62.089-138.667 138.667-138.667h426.667c76.578 0 138.667 62.089 138.667 138.667s-62.089 138.667-138.667 138.667h-426.667z" />
<glyph unicode="&#xe96b;" glyph-name="download" d="M512 864c17.673 0 32-14.327 32-32v-520.081l158.707 158.707c12.497 12.497 32.759 12.497 45.257 0 12.493-12.497 12.493-32.755 0-45.252l-213.376-213.376c-6.003-6.003-14.144-9.374-22.63-9.374s-16.627 3.371-22.63 9.374l-213.332 213.376c-12.495 12.497-12.494 32.759 0.005 45.257 12.498 12.493 32.759 12.493 45.255-0.004l158.745-158.78v520.154c0 17.673 14.327 32 32 32zM138.667 64c0 17.673 14.327 32 32 32h682.667c17.673 0 32-14.327 32-32s-14.327-32-32-32h-682.667c-17.673 0-32 14.327-32 32z" />
<glyph unicode="&#xe96c;" glyph-name="download-1" d="M512 821.479c17.673 0 32-14.327 32-32v-378.057l97.152 97.152c12.497 12.497 32.759 12.497 45.257 0s12.497-32.755 0-45.252l-151.497-151.497c-1.015-1.041-2.103-2.014-3.251-2.91-2.202-1.719-4.574-3.11-7.057-4.173-2.889-1.237-5.995-2.065-9.246-2.402-9.271-0.977-18.884 2.091-25.993 9.195l-151.785 151.787c-12.497 12.497-12.497 32.755 0 45.252s32.758 12.497 45.255 0l97.164-97.165v378.070c0 17.673 14.327 32 32 32zM202.542 258.321c0 17.677-14.327 32-32 32s-32-14.323-32-32c0-101.5 82.284-183.782 183.786-183.782h379.381c101.5 0 183.782 82.283 183.782 183.782 0 17.677-14.327 32-32 32s-32-14.323-32-32c0-66.155-53.628-119.782-119.782-119.782h-379.381c-66.156 0-119.786 53.628-119.786 119.782z" />
<glyph unicode="&#xe96d;" glyph-name="edit" d="M610.325 839.775c29.163 29.212 76.437 29.163 105.591 0.007l59.861-59.861c29.18-29.179 29.18-76.448 0-105.628l-74.765-74.767c-0.41-0.458-0.836-0.908-1.276-1.348s-0.887-0.864-1.348-1.274l-384.861-384.864c-6.001-5.999-14.141-9.37-22.627-9.37h-120.235c-17.673 0-32 14.323-32 32v120.235c0 8.486 3.372 16.627 9.373 22.626l384.453 384.417c0.529 0.617 1.088 1.219 1.673 1.804s1.186 1.143 1.805 1.674l74.355 74.349zM556.855 695.805l-354.189-354.156v-74.978h74.98l354.174 354.171-74.965 74.963zM677.073 666.097l-74.961 74.961 53.504 53.498c4.122 4.131 10.846 4.173 15.049-0.029l59.861-59.861c4.186-4.186 4.186-10.932 0-15.119l-53.453-53.45zM96 64c0 17.673 14.327 32 32 32h768c17.673 0 32-14.327 32-32s-14.327-32-32-32h-768c-17.673 0-32 14.327-32 32z" />
<glyph unicode="&#xe96e;" glyph-name="external-link" d="M121.638 821.982c-2.945-2.945-5.168-6.34-6.667-9.963-1.502-3.622-2.331-7.594-2.331-11.759v-204.8c0-16.966 13.754-30.72 30.72-30.72s30.72 13.754 30.72 30.72v130.635l234.278-234.276c11.997-11.997 31.446-11.997 43.443 0s11.997 31.445 0 43.442l-234.276 234.279h130.635c16.966 0 30.72 13.754 30.72 30.72s-13.754 30.72-30.72 30.72h-204.8c-7.862 0-15.724-3-21.722-8.998zM849.92 636.42c0 28.294-22.905 51.2-51.2 51.2h-204.8c-16.966 0-30.72 13.754-30.72 30.72s13.754 30.72 30.72 30.72h204.8c62.226 0 112.64-50.413 112.64-112.64v-491.52c0-62.226-50.414-112.64-112.64-112.64h-491.52c-62.227 0-112.64 50.414-112.64 112.64v204.8c0 16.966 13.754 30.72 30.72 30.72s30.72-13.754 30.72-30.72v-204.8c0-28.295 22.905-51.2 51.2-51.2h491.52c28.295 0 51.2 22.905 51.2 51.2v491.52z" />
<glyph unicode="&#xe96f;" glyph-name="flag" d="M288 883.209v-19.198h565.333c10.833 0 20.928-5.48 26.833-14.563 5.901-9.083 6.81-20.535 2.411-30.434l-79.561-179.004 79.561-179.005c4.399-9.899 3.49-21.35-2.411-30.43-5.905-9.084-16-14.566-26.833-14.566h-565.333v-277.333h53.333c17.673 0 32-14.323 32-32 0-17.673-14.327-32-32-32h-170.667c-17.673 0-32 14.327-32 32 0 17.677 14.327 32 32 32h53.333v744.533c0 17.673 14.327 32 32 32s32-14.327 32-32zM288 800.010v-320.002h516.092l-65.335 147.005c-3.674 8.274-3.674 17.719 0 25.993l65.335 147.003h-516.092z" />
<glyph unicode="&#xe970;" glyph-name="home-fill" d="M855.458 641.704l-256 200.96c-28.066 21.797-62.596 33.628-98.133 33.628s-70.063-11.831-98.132-33.628l-256-199.253c-19.529-15.080-35.284-34.493-46.021-56.708s-16.162-46.621-15.846-71.293v-312.747c0-42.432 16.857-83.132 46.863-113.135 14.857-14.857 32.495-26.645 51.907-34.684 19.412-8.043 40.218-12.181 61.23-12.181h511.999c42.436 0 83.132 16.858 113.139 46.865 30.003 30.003 46.861 70.703 46.861 113.135v312.747c0.051 24.385-5.5 48.454-16.226 70.352s-26.342 41.038-45.641 55.942zM661.325 245.329c-0.111-8.452-3.516-16.525-9.493-22.502s-14.054-9.387-22.507-9.498h-255.999c-8.487 0-16.626 3.371-22.627 9.374-6.001 5.999-9.373 14.14-9.373 22.626s3.372 16.627 9.373 22.63c6.001 5.999 14.141 9.37 22.627 9.37h255.999c8.452-0.111 16.529-3.516 22.507-9.493s9.382-14.054 9.493-22.507z" />
<glyph unicode="&#xe971;" glyph-name="home-linear" d="M384 266.667c-17.673 0-32-14.327-32-32s14.327-32 32-32h256c17.673 0 32 14.327 32 32s-14.327 32-32 32h-256zM610.249 830.276c-57.775 44.97-138.684 44.958-196.485 0.009l-256.003-199.127c-38.998-30.309-61.761-76.928-61.761-126.291v-312.875c0-88.375 71.628-160 160-160h512c88.371 0 160 71.625 160 160v312.875c0 49.364-22.775 95.993-61.773 126.301l-255.979 199.109zM197.055 580.64l255.997 199.124c34.701 26.984 83.251 26.967 117.892 0.002l256.013-199.135c23.373-18.161 37.043-46.118 37.043-75.764v-312.875c0-53.026-42.974-96-96-96h-512c-53.026 0-96 42.974-96 96v312.875c0 29.646 13.682 57.613 37.055 75.774z" />
<glyph unicode="&#xe972;" glyph-name="info-fill" d="M511.834 874.667c-235.52 0-426.667-191.147-426.667-426.667s191.147-426.667 426.667-426.667c235.52 0 426.667 191.147 426.667 426.667s-190.72 426.667-426.667 426.667zM543.834 234.667c0-17.493-14.080-32-32-32s-32 14.507-32 32v213.333c0 17.493 14.507 32 32 32s32-14.507 32-32v-213.333zM511.834 565.333c-23.467 0-42.667 19.2-42.667 42.667s19.2 42.667 42.667 42.667c23.467 0 42.667-19.2 42.667-42.667s-18.773-42.667-42.667-42.667z" />
<glyph unicode="&#xe973;" glyph-name="info-outline" d="M512.085 480c17.673 0 32-14.327 32-32v-213.333c0-17.673-14.327-32-32-32-17.677 0-32 14.327-32 32v213.333c0 17.673 14.323 32 32 32zM512.085 565.333c23.561 0 42.667 19.102 42.667 42.667s-19.106 42.667-42.667 42.667c-23.565 0-42.667-19.103-42.667-42.667s19.102-42.667 42.667-42.667zM96.083 448c0 229.769 186.231 416 416.002 416 229.769 0 416-186.231 416-416s-186.231-416-416-416c-229.771 0-416.002 186.231-416.002 416zM512.085 800c-194.425 0-352.002-157.577-352.002-352s157.577-352 352.002-352c194.419 0 352 157.577 352 352s-157.581 352-352 352z" />
<glyph unicode="&#xe974;" glyph-name="link" d="M703.782 679.826c46.426 46.426 121.651 46.426 168.077 0s46.426-121.652 0-168.078l-250.837-250.837c-46.426-46.426-121.651-46.426-168.077 0s-46.426 121.651 0 168.077l37.504 37.504c12.497 12.497 12.497 32.759 0 45.257s-32.759 12.497-45.257 0l-37.503-37.504c-71.419-71.42-71.419-187.17 0-258.59s187.169-71.42 258.589 0l250.837 250.837c71.42 71.421 71.42 187.17 0 258.589s-187.17 71.42-258.59 0c-12.497-12.497-12.497-32.758 0-45.255s32.759-12.497 45.257 0zM403.032 592.399c46.427 46.426 121.653 46.426 168.079 0s46.426-121.654 0-168.079l-39.040-39.040c-12.497-12.497-12.497-32.755 0-45.252s32.759-12.497 45.257 0l39.040 39.040c71.42 71.42 71.42 187.167 0 258.586s-187.17 71.419-258.59 0l-250.837-250.838c-71.42-71.42-71.42-187.166 0-258.586s187.168-71.42 258.588 0c12.497 12.497 12.497 32.755 0 45.252s-32.758 12.497-45.255 0c-46.426-46.426-121.653-46.426-168.079 0s-46.426 121.655 0 168.081l250.837 250.836z" />
<glyph unicode="&#xe975;" glyph-name="loading" d="M512 864c17.673 0 32-14.327 32-32v-128c0-17.673-14.327-32-32-32s-32 14.327-32 32v128c0 17.673 14.327 32 32 32zM263.294 741.961c-12.497 12.497-32.758 12.497-45.255 0s-12.497-32.758 0-45.255l101.547-101.547c12.497-12.497 32.758-12.497 45.255 0s12.497 32.758 0 45.255l-101.547 101.547zM96 448c0 17.673 14.327 32 32 32h144.213c17.673 0 32-14.327 32-32s-14.327-32-32-32h-144.213c-17.673 0-32 14.327-32 32zM364.841 255.539c12.497 12.497 12.497 32.759 0 45.257s-32.758 12.497-45.255 0l-101.547-101.547c-12.497-12.497-12.497-32.759 0-45.257s32.758-12.497 45.255 0l101.547 101.547zM544 208.252c0 17.673-14.327 32-32 32s-32-14.327-32-32v-144.213c0-17.677 14.327-32 32-32s32 14.323 32 32v144.213zM805.969 696.706c12.497 12.497 12.497 32.758 0 45.255s-32.759 12.497-45.257 0l-67.84-67.84c-12.497-12.497-12.497-32.758 0-45.255s32.759-12.497 45.257 0l67.84 67.84zM800 448c0 17.673 14.327 32 32 32h64c17.673 0 32-14.327 32-32s-14.327-32-32-32h-64c-17.673 0-32 14.327-32 32zM783.42 221.845c-12.497 12.497-32.759 12.497-45.257 0s-12.497-32.755 0-45.252l22.613-22.613c12.497-12.497 32.759-12.497 45.257 0s12.497 32.755 0 45.252l-22.613 22.613z" />
<glyph unicode="&#xe976;" glyph-name="location" d="M491.674 39.283c0 0 0.013-0.009 20.326 24.717l20.314-24.725c-11.806-9.698-28.834-9.685-40.64 0.009zM512 693.333c-88.372 0-160-71.628-160-160s71.628-160 160-160c88.371 0 160 71.629 160 160s-71.629 160-160 160zM416 533.333c0 53.026 42.974 96 96 96s96-42.974 96-96c0-53.026-42.974-96-96-96s-96 42.974-96 96zM491.674 39.283l20.326 24.717c20.314-24.725 20.348-24.7 20.348-24.7l0.060 0.051 0.209 0.171 0.73 0.606c0.623 0.525 1.523 1.276 2.684 2.257 2.313 1.958 5.653 4.817 9.877 8.512 8.439 7.386 20.42 18.125 34.756 31.693 28.634 27.102 66.884 65.685 105.225 111.556 75.162 89.929 156.779 214.959 156.779 339.187 0 182.622-148.045 330.667-330.667 330.667s-330.667-148.044-330.667-330.667c0-124.228 81.616-249.259 156.78-339.187 38.34-45.871 76.59-84.454 105.223-111.556 14.336-13.568 26.317-24.307 34.756-31.693 4.224-3.695 7.565-6.554 9.877-8.512 1.161-0.981 2.061-1.732 2.684-2.257l0.73-0.606 0.209-0.171 0.081-0.068zM245.333 533.333c0 147.276 119.39 266.667 266.667 266.667s266.667-119.39 266.667-266.667c0-99.772-67.716-209.408-141.888-298.146-36.326-43.46-72.742-80.213-100.109-106.112-9.455-8.951-17.809-16.58-24.67-22.72-6.861 6.14-15.215 13.769-24.67 22.72-27.366 25.899-63.784 62.652-100.111 106.112-74.169 88.738-141.886 198.374-141.886 298.146z" />
<glyph unicode="&#xe977;" glyph-name="logout" d="M330.881 696.521l468.159 102.4c16.563 1.51 33.028-3.974 45.389-15.165 12.715-11.514 19.849-27.949 19.575-45.1l-0.004-589.309c0.009-15.731-6.929-30.677-18.957-40.815-12.023-10.142-27.913-14.455-43.418-11.789l-469.332 80.725c-25.6 4.403-44.306 26.611-44.294 52.587v91.196c0 17.673-14.327 32-32 32s-32-14.327-32-32v-91.166c-0.020-57.139 41.129-106.005 97.445-115.691l469.335-80.725c34.103-5.862 69.060 3.627 95.518 25.933 26.453 22.302 41.715 55.142 41.702 89.745v588.564c0.486 35.479-14.306 69.462-40.614 93.285-26.377 23.884-61.769 35.238-97.118 31.155-1.062-0.123-2.121-0.299-3.166-0.528l-469.071-102.599c-54.666-11.075-93.997-59.12-94.031-114.925v-74.131c0-17.673 14.327-32 32-32s32 14.327 32 32v74.112c0.024 25.405 17.967 47.262 42.881 52.242zM446.707 598.627c12.497 12.497 32.755 12.497 45.252 0l128-128.001c1.993-1.988 3.691-4.211 5.077-6.605 2.479-4.292 3.947-9.131 4.241-14.135 0.038-0.627 0.055-1.254 0.055-1.886 0-9.084-3.785-17.293-9.865-23.121l-127.509-127.505c-12.497-12.497-32.755-12.497-45.252 0s-12.497 32.755 0 45.252l73.361 73.365h-392.068c-17.673 0-32 14.323-32 32 0 17.673 14.327 32 32 32h392.090l-73.382 73.381c-12.497 12.497-12.497 32.758 0 45.255z" />
<glyph unicode="&#xe978;" glyph-name="menu-burger" d="M170.667 618.667c-23.564 0-42.667-19.103-42.667-42.667s19.103-42.667 42.667-42.667h682.667c23.565 0 42.667 19.103 42.667 42.667s-19.102 42.667-42.667 42.667h-682.667zM426.667 362.667c-23.564 0-42.667-19.102-42.667-42.667s19.102-42.667 42.667-42.667h426.667c23.565 0 42.667 19.102 42.667 42.667s-19.102 42.667-42.667 42.667h-426.667z" />
<glyph unicode="&#xe979;" glyph-name="negative" d="M224 448c0 17.673 14.327 32 32 32h512c17.673 0 32-14.327 32-32s-14.327-32-32-32h-512c-17.673 0-32 14.327-32 32z" />
<glyph unicode="&#xe97a;" glyph-name="nenu-burger-1" d="M170.667 665.6c0 21.208 16.98 38.4 37.926 38.4h606.814c20.945 0 37.926-17.192 37.926-38.4s-16.981-38.4-37.926-38.4h-606.814c-20.946 0-37.926 17.192-37.926 38.4zM170.667 447.996c0 21.21 16.98 38.4 37.926 38.4h606.814c20.945 0 37.926-17.19 37.926-38.4s-16.981-38.4-37.926-38.4h-606.814c-20.946 0-37.926 17.19-37.926 38.4zM208.593 268.8c-20.946 0-37.926-17.19-37.926-38.4 0-21.205 16.98-38.4 37.926-38.4h606.814c20.945 0 37.926 17.195 37.926 38.4 0 21.21-16.981 38.4-37.926 38.4h-606.814z" />
<glyph unicode="&#xe97b;" glyph-name="plus-fill" d="M512 874.667c-235.52 0-426.667-191.147-426.667-426.667s191.147-426.667 426.667-426.667c235.52 0 426.667 191.147 426.667 426.667s-191.147 426.667-426.667 426.667zM682.667 416h-138.667v-138.667c0-17.493-14.507-32-32-32s-32 14.507-32 32v138.667h-138.667c-17.493 0-32 14.507-32 32s14.507 32 32 32h138.667v138.667c0 17.493 14.507 32 32 32s32-14.507 32-32v-138.667h138.667c17.493 0 32-14.507 32-32s-14.507-32-32-32z" />
<glyph unicode="&#xe97c;" glyph-name="plus-linear" d="M533.333 704c0 17.673-14.327 32-32 32s-32-14.327-32-32v-224h-213.333c-17.673 0-32-14.327-32-32s14.327-32 32-32h213.333v-224c0-17.673 14.327-32 32-32s32 14.327 32 32v224h234.667c17.673 0 32 14.327 32 32s-14.327 32-32 32h-234.667v224z" />
<glyph unicode="&#xe97d;" glyph-name="plus-minus" d="M511.979 753.062c17.673 0 32-14.327 32-32v-172.802h172.809c17.673 0 32-14.327 32-31.998 0-17.677-14.327-32-32-32h-172.809v-172.8c0-17.673-14.327-32-32-32s-32 14.327-32 32v172.8h-172.791c-17.673 0-32 14.323-32 32 0 17.671 14.327 31.998 32 31.998h172.791v172.802c0 17.673 14.327 32 32 32zM307.188 206.929c-17.673 0-32-14.327-32-32 0-17.677 14.327-32 32-32h409.6c17.673 0 32 14.323 32 32 0 17.673-14.327 32-32 32h-409.6z" />
<glyph unicode="&#xe97e;" glyph-name="plus-outline" d="M512 650.667c17.673 0 32-14.327 32-32v-138.667h138.667c17.673 0 32-14.327 32-32s-14.327-32-32-32h-138.667v-138.667c0-17.673-14.327-32-32-32s-32 14.327-32 32v138.667h-138.667c-17.673 0-32 14.327-32 32s14.327 32 32 32h138.667v138.667c0 17.673 14.327 32 32 32zM512 864c-229.769 0-416-186.231-416-416s186.231-416 416-416c229.769 0 416 186.231 416 416s-186.231 416-416 416zM160 448c0 194.423 157.577 352 352 352s352-157.577 352-352c0-194.423-157.577-352-352-352s-352 157.577-352 352z" />
<glyph unicode="&#xe97f;" glyph-name="question-outline" d="M394.458 533.371c0 64.821 52.547 117.369 117.371 117.369 64.819 0 117.367-52.548 117.367-117.369 0-53.729-36.1-99.024-85.367-112.955v-36.442c0-17.673-14.327-32-32-32-17.677 0-32 14.327-32 32v64.026c0 17.677 14.323 32 32 32 29.474 0 53.367 23.898 53.367 53.371 0 29.475-23.893 53.369-53.367 53.369-29.478 0-53.372-23.894-53.372-53.369 0-17.672-14.327-31.999-31.999-31.999s-32 14.327-32 31.999zM511.842 311.407c-18.85 0-34.133-15.283-34.133-34.133 0-18.854 15.283-34.138 34.133-34.138s34.133 15.283 34.133 34.138c0 18.85-15.283 34.133-34.133 34.133zM95.667 448.009c0 229.837 186.321 416.158 416.158 416.158 229.841 0 416.162-186.321 416.162-416.158 0-229.841-186.321-416.162-416.162-416.162-229.837 0-416.158 186.321-416.158 416.162zM511.825 800.167c-194.491 0-352.158-157.667-352.158-352.158 0-194.496 157.667-352.162 352.158-352.162 194.496 0 352.162 157.666 352.162 352.162 0 194.491-157.666 352.158-352.162 352.158z" />
<glyph unicode="&#xe980;" glyph-name="question-outline-1" d="M446.37 692.864c-56.695 0-102.828-45.88-102.828-102.741 0-17.673 14.327-32 32-32s32 14.327 32 32c0 21.39 17.354 38.741 38.828 38.741 21.419 0 38.784-17.344 38.784-38.784 0-6.845-1.899-11.159-4.651-14.87-3.29-4.428-8.418-8.776-16.239-14.042-19.977-13.416-49.939-37.426-49.939-83.174v-8.832c0-17.673 14.325-32 32.002-32 17.673 0 32 14.327 32 32v8.832c0 7.155 1.988 11.686 4.868 15.569 3.418 4.599 8.73 9.088 16.764 14.481 19.524 13.146 49.195 36.877 49.195 82.036 0 56.811-46.042 102.784-102.784 102.784zM483.665 362.97c0-20.621-16.713-37.333-37.333-37.333-20.617 0-37.332 16.713-37.332 37.333 0 20.617 16.715 37.333 37.332 37.333 20.621 0 37.333-16.717 37.333-37.333zM223.75 160v-10.667c0-64.819 52.514-117.333 117.333-117.333h469.332c64.823 0 117.333 52.514 117.333 117.333v469.333c0 64.82-52.51 117.333-117.333 117.333h-10.667v10.667c0 64.82-52.51 117.333-117.333 117.333h-469.332c-64.82 0-117.333-52.514-117.333-117.333v-469.333c0-64.819 52.514-117.333 117.333-117.333h10.667zM159.75 746.667c0 29.474 23.86 53.333 53.333 53.333h469.332c29.474 0 53.333-23.86 53.333-53.333v-469.333c0-29.474-23.859-53.333-53.333-53.333h-469.332c-29.474 0-53.333 23.859-53.333 53.333v469.333zM799.748 672h10.667c29.474 0 53.333-23.86 53.333-53.333v-469.333c0-29.474-23.859-53.333-53.333-53.333h-469.332c-29.474 0-53.333 23.859-53.333 53.333v10.667h394.665c64.823 0 117.333 52.514 117.333 117.333v394.667z" />
<glyph unicode="&#xe981;" glyph-name="search" d="M669.261 245.483l118.818-118.818c12.497-12.497 32.759-12.497 45.257 0s12.497 32.759 0 45.257l-118.818 118.818c95.138 117.722 87.991 290.699-21.436 400.125-117.069 117.070-306.876 117.070-423.946 0s-117.070-306.877 0-423.946c109.426-109.427 282.403-116.574 400.125-21.436zM314.391 645.609c92.076 92.076 241.36 92.076 333.439 0 91.332-91.335 92.070-238.962 2.206-331.203-0.802-0.657-1.579-1.361-2.33-2.112s-1.455-1.527-2.112-2.33c-92.241-89.865-239.868-89.126-331.203 2.206-92.076 92.079-92.076 241.362 0 333.439z" />
<glyph unicode="&#xe982;" glyph-name="share" d="M636.45 778.632c-37.393-37.396-50.227-90.052-38.498-137.923l-200.657-100.328c-3.038 3.703-6.287 7.292-9.745 10.751-56.936 56.935-149.246 56.935-206.181 0-56.936-56.937-56.936-149.246 0-206.18s149.245-56.934 206.181 0c3.45 3.452 6.692 7.031 9.724 10.726l200.687-100.343c-11.746-47.885 1.084-100.561 38.49-137.967 56.939-56.934 149.248-56.934 206.182 0s56.934 149.244 0 206.182c-56.934 56.934-149.244 56.934-206.182 0-3.52-3.524-6.822-7.177-9.907-10.953l-200.573 100.284c5.705 23.057 5.705 47.232 0.008 70.289l200.535 100.266c3.093-3.787 6.409-7.454 9.937-10.986 56.939-56.935 149.248-56.935 206.182 0s56.934 149.246 0 206.181c-56.934 56.936-149.244 56.936-206.182 0zM797.376 733.377c-31.94 31.942-83.729 31.942-115.669 0-24.141-24.14-30.037-59.616-17.69-89.294 1.071-1.453 2.031-3.017 2.863-4.686 0.849-1.696 1.532-3.431 2.057-5.187 3.456-5.894 7.714-11.448 12.77-16.505 31.94-31.942 83.729-31.942 115.669 0 31.945 31.942 31.945 83.73 0 115.671zM359.742 416.013c8.666 20.386 8.678 43.575 0.036 63.97-1.014 1.404-1.928 2.901-2.726 4.501-0.786 1.57-1.431 3.174-1.938 4.8-3.465 5.926-7.738 11.511-12.819 16.593-31.942 31.942-83.73 31.942-115.671 0-31.942-31.94-31.942-83.729 0-115.674 31.942-31.94 83.729-31.94 115.671 0 5.093 5.094 9.374 10.692 12.843 16.636 0.504 1.596 1.14 3.179 1.914 4.723 0.789 1.579 1.69 3.063 2.69 4.45zM664.064 252.028c1.050 1.434 1.997 2.978 2.816 4.621 0.832 1.664 1.506 3.366 2.027 5.090 3.465 5.914 7.727 11.486 12.8 16.555 31.94 31.94 83.729 31.94 115.669 0 31.945-31.94 31.945-83.729 0-115.669-31.94-31.945-83.729-31.945-115.669 0-24.171 24.171-30.050 59.703-17.643 89.404z" />
<glyph unicode="&#xe983;" glyph-name="theme" d="M393.375 286.72c0-23.565-19.103-42.667-42.667-42.667s-42.667 19.102-42.667 42.667c0 23.565 19.102 42.667 42.667 42.667s42.667-19.102 42.667-42.667zM283.75 405.333c23.564 0 42.667 19.102 42.667 42.667s-19.102 42.667-42.667 42.667c-23.564 0-42.667-19.102-42.667-42.667s19.103-42.667 42.667-42.667zM393.375 609.281c0-23.564-19.103-42.667-42.667-42.667s-42.667 19.103-42.667 42.667c0 23.564 19.102 42.667 42.667 42.667s42.667-19.103 42.667-42.667zM512 633.604c23.565 0 42.667 19.102 42.667 42.667s-19.102 42.667-42.667 42.667c-23.565 0-42.667-19.103-42.667-42.667s19.102-42.667 42.667-42.667zM715.959 609.281c0-23.564-19.102-42.667-42.667-42.667s-42.667 19.103-42.667 42.667c0 23.564 19.102 42.667 42.667 42.667s42.667-19.103 42.667-42.667zM511.983 31.996h57.173c37.547 0 71.253 16.64 93.867 46.507s29.44 67.413 19.2 102.827l-11.093 38.4c-4.693 16.213-1.707 33.28 8.533 46.933s25.6 21.333 42.667 21.333h87.893c64.853 0 117.333 52.48 117.333 117.333v42.667c0 113.494-44.8 219.307-125.867 298.24s-188.16 120.747-301.653 117.76c-216.747-5.973-398.080-187.307-404.053-404.054-2.987-113.493 38.827-220.587 117.76-302.080 78.933-81.067 184.747-125.867 298.24-125.867zM501.743 799.996h10.24l-0.427-0.853c92.16 0 179.2-34.987 245.333-99.413 68.693-66.56 106.667-156.16 106.667-252.16v-42.667c0-29.44-23.893-53.333-53.333-53.333h-87.893c-37.547 0-71.68-16.64-93.867-46.507-22.613-29.867-29.44-66.987-19.2-102.827l11.093-38.4c4.693-16.213 1.707-32.853-8.533-46.507s-25.6-21.333-42.667-21.333h-57.6c-95.573 0-185.173 37.973-252.16 106.667-66.56 68.693-101.973 159.573-99.413 255.573 5.12 183.467 158.293 336.64 341.76 341.76z" />
<glyph unicode="&#xe984;" glyph-name="tick" d="M832.922 684.248c12.655-12.336 12.911-32.596 0.576-45.251l-407.532-418.090c-1.583-3.324-3.772-6.434-6.565-9.156-12.655-12.335-32.915-12.075-45.251 0.58l-183.814 188.574c-12.336 12.659-12.077 32.917 0.579 45.252s32.915 12.079 45.251-0.58l159.712-163.849 391.793 401.942c12.335 12.655 32.593 12.914 45.252 0.579z" />
<glyph unicode="&#xe985;" glyph-name="tick-blue" d="M919.889 501.756l-58.027 67.415c-11.093 12.8-20.053 36.693-20.053 53.76v72.533c0 45.227-37.12 82.347-82.347 82.347h-72.533c-16.64 0-40.96 8.96-53.76 20.053l-67.413 58.027c-29.44 25.173-77.653 25.173-107.52 0l-66.988-58.453c-12.8-10.667-37.12-19.627-53.76-19.627h-73.813c-45.227 0-82.347-37.12-82.347-82.347v-72.96c0-16.64-8.96-40.533-19.627-53.333l-57.6-67.842c-24.747-29.44-24.747-77.227 0-106.667l57.6-67.84c10.667-12.8 19.627-36.693 19.627-53.333v-72.96c0-45.227 37.12-82.347 82.347-82.347h73.813c16.64 0 40.96-8.96 53.76-20.053l67.414-58.027c29.44-25.173 77.653-25.173 107.52 0l67.413 58.027c12.8 11.093 36.693 20.053 53.76 20.053h72.533c45.227 0 82.347 37.12 82.347 82.347v72.533c0 16.64 8.96 40.96 20.053 53.76l58.027 67.413c24.747 29.44 24.747 78.080-0.427 107.52zM689.489 528.636l-206.080-206.080c-5.973-5.973-14.080-9.387-22.613-9.387s-16.64 3.413-22.613 9.387l-103.254 103.253c-12.373 12.373-12.373 32.853 0 45.227s32.853 12.373 45.227 0l80.641-80.64 183.467 183.468c12.373 12.373 32.853 12.373 45.227 0s12.373-32.853 0-45.228z" />
<glyph unicode="&#xe986;" glyph-name="tick-fill" d="M512 21.333c-235.642 0-426.667 191.027-426.667 426.667 0 235.642 191.025 426.667 426.667 426.667 235.639 0 426.667-191.025 426.667-426.667 0-235.639-191.027-426.667-426.667-426.667zM683.213 527.77c12.497 12.496 12.497 32.757 0 45.254s-32.759 12.497-45.257 0l-185.971-185.968-69.233 69.231c-12.497 12.497-32.758 12.497-45.255 0s-12.497-32.755 0-45.252l92.459-92.459c12.497-12.497 32.759-12.497 45.257 0 1.783 1.783 3.311 3.725 4.587 5.781l203.413 203.413z" />
<glyph unicode="&#xe987;" glyph-name="tick-outline" d="M683.337 527.625c12.497 12.495 12.497 32.756 0 45.253s-32.759 12.497-45.257 0l-185.967-185.972-69.236 69.235c-12.497 12.497-32.758 12.497-45.255 0s-12.497-32.759 0-45.252l92.457-92.459c12.497-12.497 32.759-12.497 45.257 0 1.783 1.783 3.315 3.725 4.591 5.781l203.409 203.413zM512 864c-229.751 0-416-186.249-416-416s186.249-416 416-416c229.751 0 416 186.249 416 416s-186.249 416-416 416zM160 448c0 194.404 157.596 352 352 352 194.402 0 352-157.596 352-352 0-194.402-157.598-352-352-352-194.404 0-352 157.598-352 352z" />
<glyph unicode="&#xe988;" glyph-name="trash" d="M426.625 266.581c-17.673 0-32-14.323-32-32 0-17.673 14.327-32 32-32h170.738c17.673 0 32 14.327 32 32 0 17.677-14.327 32-32 32h-170.738zM335.354 840.729c15.007 15.007 35.36 23.438 56.583 23.438h240.102c44.194 0 80.017-35.826 80.017-80.020v-64.043h141.436c17.673 0 32-14.327 32-32s-14.327-32-32-32h-23.744l-38.925-506.041c-5.133-66.709-60.757-118.221-127.663-118.221h-302.328c-66.906 0-122.531 51.511-127.663 118.221l-38.926 506.041h-23.7c-17.673 0-32 14.327-32 32s14.327 32 32 32h141.375v64.043c0 21.222 8.431 41.576 23.437 56.582zM391.937 800.167c-4.249 0-8.324-1.688-11.328-4.692s-4.692-7.079-4.692-11.328v-64.040h272.139v64.040c0 8.847-7.172 16.020-16.017 16.020h-240.102zM765.559 656.104h-507.128l38.549-501.13c2.566-33.365 30.388-59.132 63.851-59.132h302.328c33.463 0 61.286 25.766 63.851 59.132l38.549 501.13z" />
<glyph unicode="&#xe989;" glyph-name="upload" d="M480 754.761v-520.094c0-17.673 14.327-32 32-32s32 14.327 32 32v520.063l158.707-158.691c12.497-12.496 32.759-12.495 45.257 0.003 12.493 12.497 12.493 32.759-0.004 45.255l-212.646 212.625c-5.837 6.205-14.123 10.079-23.313 10.079-0.009 0 0.009 0 0 0-8.188 0-16.401-3.125-22.652-9.374l-213.31-213.333c-12.496-12.497-12.495-32.759 0.003-45.255s32.759-12.495 45.255 0.003l158.705 158.72zM138.667 64c0 17.673 14.327 32 32 32h682.667c17.673 0 32-14.327 32-32s-14.327-32-32-32h-682.667c-17.673 0-32 14.327-32 32z" />
<glyph unicode="&#xe98a;" glyph-name="upload-1" d="M318.706 638.706c12.497-12.497 32.758-12.497 45.255 0l116.039 116.039v-420.593c0-17.673 14.327-32 32-32s32 14.327 32 32v420.593l116.041-116.039c12.497-12.497 32.755-12.497 45.252 0s12.497 32.758 0 45.255l-170.667 170.667c-12.497 12.497-32.755 12.497-45.252 0l-170.668-170.667c-12.497-12.497-12.497-32.758 0-45.255zM202.542 258.313c0 17.673-14.327 32-32 32s-32-14.327-32-32c0-101.504 82.284-183.787 183.786-183.787h379.381c101.5 0 183.782 82.283 183.782 183.787 0 17.673-14.327 32-32 32s-32-14.327-32-32c0-66.155-53.628-119.787-119.782-119.787h-379.381c-66.156 0-119.786 53.632-119.786 119.787z" />
<glyph unicode="&#xe98b;" glyph-name="warning" d="M469.333 117.218c-0.192 35.507 28.621 64.115 63.872 64.115 35.383 0 64.128-28.578 64.128-64 0-35.337-28.663-64-64-64-35.298 0-63.936 28.599-64 63.885zM469.333 117.218v0.115h32l-32-0.23v0.115zM533.205 117.333v0zM533.333 821.333c17.673 0 32-14.327 32-32v-426.667c0-17.673-14.327-32-32-32s-32 14.327-32 32v426.667c0 17.673 14.327 32 32 32z" />
<glyph unicode="&#xe98c;" glyph-name="warning-fill-1" d="M800.427 729.603l-192 117.76c-59.733 36.267-133.12 36.267-192.853 0l-192-117.76c-59.307-36.267-95.573-102.827-95.573-174.507v-214.185c0-71.68 36.267-138.24 95.573-174.507l192-117.76c59.733-36.267 133.12-36.267 192.853 0l192 117.76c59.307 36.267 95.573 102.827 95.573 174.507v214.185c0 71.68-36.267 138.24-95.573 174.507zM480 640.003c0 17.493 14.507 32 32 32s32-14.507 32-32v-191.998c0-17.493-14.507-32-32-32s-32 14.507-32 32v191.998zM512 245.338c-23.467 0-42.667 19.2-42.667 42.667s19.2 42.667 42.667 42.667c23.467 0 42.667-19.2 42.667-42.667s-19.2-42.667-42.667-42.667z" />
<glyph unicode="&#xe98d;" glyph-name="warning-linear" d="M554.667 266.667c0-23.565-19.102-42.667-42.667-42.667s-42.667 19.102-42.667 42.667c0 23.565 19.102 42.667 42.667 42.667s42.667-19.102 42.667-42.667zM544 640c0 17.673-14.327 32-32 32s-32-14.327-32-32v-213.333c0-17.673 14.327-32 32-32s32 14.327 32 32v213.333zM512 32c-229.769 0-416 186.231-416 416s186.231 416 416 416c229.769 0 416-186.231 416-416s-186.231-416-416-416zM512 800c-194.423 0-352-157.577-352-352s157.577-352 352-352c194.423 0 352 157.577 352 352s-157.577 352-352 352z" />
<glyph unicode="&#xe98e;" glyph-name="warning-outline" d="M512 672c17.673 0 32-14.327 32-32v-192c0-17.673-14.327-32-32-32s-32 14.327-32 32v192c0 17.673 14.327 32 32 32zM431.501 799.607h160.956c-49.741 28.94-111.215 28.94-160.956 0zM431.501 799.607l-191.994-111.739c-49.21-28.662-79.507-81.326-79.507-138.278v-203.179c0-56.951 30.289-109.611 79.54-138.274l191.999-111.74c49.741-28.941 111.219-28.945 160.96-0.004l191.996 111.74c49.212 28.663 79.505 81.323 79.505 138.278v203.179c0 56.952-30.289 109.611-79.539 138.273l-192.004 111.744zM399.31 854.924c69.64 40.519 155.698 40.519 225.339 0l192-111.745c68.937-40.117 111.351-113.837 111.351-193.588v-203.179c0-79.748-42.411-153.463-111.3-193.583l-192.004-111.748c-69.641-40.521-155.703-40.521-225.343 0l-192.002 111.744c-68.935 40.115-111.35 113.835-111.35 193.587v203.179c0 79.749 42.412 153.466 111.299 193.583l192.011 111.75zM554.667 288c0-23.565-19.102-42.667-42.667-42.667s-42.667 19.102-42.667 42.667c0 23.565 19.102 42.667 42.667 42.667s42.667-19.102 42.667-42.667z" />
<glyph unicode="&#xe98f;" glyph-name="wifi-off" d="M830.106 857.418c14.042-10.735 16.717-30.819 5.982-44.858l-62.801-82.123c-0.401-0.561-0.815-1.106-1.25-1.636l-490.615-641.573c-10.736-14.042-30.819-16.717-44.858-5.982s-16.716 30.818-5.981 44.855l312.569 408.748c-117.191 8.050-236.821-28.985-325.649-110.435-13.026-11.942-33.268-11.063-45.213 1.963s-11.067 33.267 1.959 45.21c113.394 103.976 268.58 144.337 414.321 122.657l105.626 138.126c-206.967 58.129-442.080 14.454-605.022-129.331-13.251-11.694-33.473-10.431-45.167 2.821s-10.43 33.473 2.821 45.167c187.096 165.1 457.16 209.676 688.925 135.685l49.498 64.727c10.735 14.039 30.818 16.716 44.855 5.981zM464.043 122.59c-0.132 26.697 21.547 48.077 47.915 48.077 26.492 0 48.043-21.44 48.043-48 0-26.505-21.495-48-48-48-26.398 0-47.962 21.376-47.957 47.923zM464.043 122.59l20.164 0.132-20.164 0.098v-0.23zM751.689 540.41c-15.62 8.269-34.987 2.311-43.255-13.31-8.269-15.616-2.308-34.982 13.308-43.251 30.426-16.107 58.948-35.772 84.672-59.409 13.013-11.959 33.254-11.102 45.214 1.907 11.959 13.013 11.102 33.259-1.911 45.218-30.084 27.644-63.172 50.394-98.027 68.845zM844.019 704.86c9.237 15.066 28.941 19.789 44.006 10.549 30.451-18.676 60.834-39.463 89.109-64.36 13.265-11.679 14.549-31.899 2.871-45.164s-31.898-14.55-45.163-2.871c-24.546 21.61-51.593 40.247-80.277 57.837-15.066 9.239-19.789 28.943-10.547 44.008zM619.951 374.332c-16.503 6.323-35.004-1.933-41.327-18.436-6.319-16.508 1.937-35.008 18.441-41.331 29.53-11.307 57.19-28.668 80.964-52.292 12.535-12.454 32.798-12.39 45.252 0.145 12.459 12.535 12.395 32.798-0.141 45.252-30.332 30.14-65.643 52.288-103.189 66.662z" />
</font>
</defs>
</svg>
